<?xml version="1.0" standalone="no"?>
<!DOCTYPE svg PUBLIC "-//W3C//DTD SVG 1.1//EN" "http://www.w3.org/Graphics/SVG/1.1/DTD/svg11.dtd" >
<!--
2016-6-22: Created.
-->
<svg xmlns="http://www.w3.org/2000/svg">
<metadata>
Created by FontForge 20120731 at Wed Jun 22 15:32:08 2016
 By root
Created by root with FontForge 2.0 (http://fontforge.sf.net)
</metadata>
<defs>
<font id="Flaticon" horiz-adv-x="512" >
  <font-face 
    font-family="Flaticon"
    font-weight="500"
    font-stretch="normal"
    units-per-em="512"
    panose-1="2 0 6 3 0 0 0 0 0 0"
    ascent="448"
    descent="-64"
    bbox="13.0977 -39.3926 499.596 463.876"
    underline-thickness="25.6"
    underline-position="-51.2"
    unicode-range="U+0020-F163"
  />
    <missing-glyph />
    <glyph glyph-name="space" unicode=" " horiz-adv-x="200" 
 />
    <glyph glyph-name="uniF122" unicode="&#xf122;" 
d="M27.3857 164.614c-0.396484 1.98438 -0.396484 4.36523 -1.58691 7.14355c-0.793945 6.74805 -1.19141 13.8916 -1.19141 21.0361c0 48.0244 14.6855 92.4775 39.6904 129.389v0.397461c3.1748 4.7627 6.74707 9.12793 10.3193 13.4941
c0 0 0.396484 0.397461 0.793945 0.793945c10.7158 13.0977 22.2256 25.0049 35.3232 35.3242c0 0.396484 0.397461 0.396484 0.793945 0.793945c3.96973 3.1748 7.93848 6.34961 12.3037 9.12793c0 0.397461 0.397461 0.397461 0.397461 0.397461
c36.9111 25.4014 81.7607 40.4834 130.183 40.4834c7.14453 0 13.8916 -0.396484 21.0361 -1.19043c2.38086 -0.397461 4.36523 -0.397461 6.35059 -0.793945c5.15918 -0.793945 10.3193 -1.58789 15.4785 -2.38184l5.95312 -1.19043
c13.4951 -3.1748 26.5928 -7.14355 39.2939 -12.3037c1.98438 -0.793945 3.57129 -1.58789 5.55566 -2.38086c4.36621 -1.98535 8.73242 -3.96973 13.0977 -6.35059c1.98535 -1.19141 3.96973 -1.98438 5.9541 -3.17578c4.7627 -2.38086 9.12891 -5.15918 13.4941 -7.9375
c1.19141 -0.793945 2.77832 -1.58789 3.96973 -2.38184c0.396484 -0.396484 0.792969 -0.396484 1.19043 -0.793945c0.396484 0 0.793945 -0.396484 1.19043 -0.792969c3.57227 -2.38184 7.14453 -5.16016 10.7168 -7.93848
c0.396484 -0.396484 0.792969 -0.396484 0.792969 -0.396484c0.397461 0 0.793945 -0.397461 1.19141 -0.793945c13.0977 -10.7168 25.0039 -22.2266 35.3242 -35.3242c0 -0.396484 0.396484 -0.793945 0.792969 -1.19043
c0.397461 -0.397461 0.397461 -0.397461 0.397461 -0.793945c2.77832 -3.96875 5.95312 -7.93848 8.73145 -11.9072c0.397461 -0.396484 0.793945 -0.793945 1.19043 -1.19043c3.96973 -5.9541 7.54199 -11.9072 11.1133 -18.2578
c0.793945 -1.19043 1.19141 -2.77832 1.98438 -3.96875c2.38184 -5.15918 4.76367 -9.92285 7.14453 -15.082c0.793945 -1.58789 1.19043 -2.77832 1.98438 -4.36621c5.16016 -12.7002 9.52539 -26.1953 12.3037 -39.6895
c0.397461 -1.58789 0.793945 -3.57227 1.19141 -5.16016c0.793945 -5.15918 1.58691 -10.7158 2.38086 -15.876c0.397461 -1.98438 0.793945 -3.96875 0.793945 -5.95312c0.793945 -6.74707 1.19043 -13.8916 1.19043 -21.0361
c0 -48.4219 -15.082 -93.2705 -40.4834 -130.183c-0.396484 0 -0.396484 -0.396484 -0.396484 -0.396484c-3.57227 -5.16016 -7.14453 -9.92285 -11.1133 -14.6855c-1.58789 -2.77832 -3.96973 -4.7627 -5.9541 -7.14453
c-1.98438 -1.98438 -3.57227 -4.36523 -5.55664 -6.35059l-1.98438 -1.98438l-4.7627 -4.7627l-1.58789 -1.58691c-3.57129 -3.57227 -7.14355 -6.74805 -10.7158 -9.92285c-0.793945 -0.793945 -1.58789 -1.19043 -2.38184 -1.98438
c-5.15918 -4.36621 -10.3193 -8.33496 -15.876 -11.9072c0 -0.396484 -0.396484 -0.396484 -0.396484 -0.396484c-36.5146 -25.0049 -80.9678 -39.6904 -128.992 -39.6904c-7.14453 0 -13.8916 0.397461 -21.0361 1.19043
c-1.98438 0.397461 -3.96875 0.397461 -5.95312 0.793945c-5.55664 0.397461 -10.7158 1.58789 -15.876 2.38184c-1.58789 0.396484 -3.57227 0.793945 -5.15918 1.19043c-13.4951 2.77832 -26.9893 7.14453 -39.6904 12.3037
c-1.58789 0.793945 -2.77832 1.19141 -4.36621 1.98438c-5.15918 1.98438 -10.3193 4.36621 -15.082 7.14453c-1.19043 0.396484 -2.77832 1.19043 -3.96875 1.98438c-5.95312 3.57227 -12.3037 7.14453 -18.2568 11.1133c-0.397461 0 -0.793945 0.396484 -1.19141 0.793945
c-9.52539 6.74707 -18.6543 14.2881 -26.9893 22.2266l-0.396484 0.396484c-0.793945 0.793945 -1.19043 1.58789 -1.98438 1.98438l-4.7627 4.7627c-0.793945 0.793945 -1.58789 1.19141 -1.98438 1.98438c0 0.397461 -0.397461 0.793945 -0.397461 0.793945
c-7.9375 8.33496 -15.082 17.0674 -21.4326 26.1953c0 0.397461 -0.396484 0.793945 -0.793945 1.19141c-0.396484 0.396484 -0.396484 0.792969 -0.792969 1.19043c-1.19141 1.19043 -1.98535 2.77832 -2.77832 3.96875
c-2.77832 4.36621 -5.55664 8.73242 -7.93848 13.0977c-1.19043 1.98438 -1.98438 3.96875 -3.1748 5.9541c-2.38184 4.36523 -4.36621 8.73145 -6.35059 13.0977c-0.793945 1.58691 -1.58789 3.57129 -2.38184 5.55566c-5.55664 12.3047 -9.52539 25.4023 -12.3037 38.8965
c-0.396484 1.98438 -0.793945 3.96875 -1.19043 5.9541c-1.19043 4.7627 -1.98438 9.92188 -2.38184 15.082zM134.151 36.415l61.5195 61.917c-13.0977 8.33496 -24.2109 19.4473 -32.9424 32.5449l-61.916 -61.916c3.96875 -5.15918 8.33496 -9.92188 12.7002 -14.2881
l5.16016 -5.16016c5.15918 -4.36523 10.3193 -8.73145 15.4785 -13.0977zM177.017 192c0 -2.38184 0 -5.16016 1.19141 -7.14453c0.396484 -1.58691 0.396484 -3.1748 0.792969 -4.7627c0 -0.793945 0.397461 -1.58789 0.397461 -2.38086
c0.396484 -2.38184 1.19043 -4.36621 1.58789 -6.35059v-0.397461c0.792969 -2.38086 1.58691 -4.36523 2.38086 -6.74707c7.93848 -21.4326 25.0049 -38.1025 46.4375 -46.04c1.98438 -0.793945 4.36523 -1.19043 6.35059 -1.98438h0.396484
c1.98438 -0.397461 3.96875 -0.793945 5.95312 -1.19043c0.793945 0 1.58789 -0.397461 2.38184 -0.397461c1.58789 -0.396484 2.77832 -0.793945 4.36621 -0.793945c2.38086 -0.396484 4.7627 -0.396484 7.14355 -0.396484c9.52539 0 18.6543 1.58789 26.9893 4.7627
c2.38184 0.793945 5.16016 1.98438 7.54102 3.1748c2.38184 1.19141 4.7627 2.38184 7.14453 3.96973c14.2881 8.73145 25.4014 22.2256 31.3545 38.1016c3.17578 8.73242 5.16016 18.2578 5.16016 28.1807c0 2.38086 0 4.7627 -0.396484 7.14355
c-0.397461 1.19043 -0.397461 2.77832 -0.793945 4.36621c0 0.793945 -0.397461 1.58789 -0.397461 2.38086c-0.396484 1.98438 -0.793945 3.96973 -1.19043 5.9541v0.396484c-0.396484 1.98438 -1.19043 4.36621 -1.98438 6.35059
c-7.93848 21.4326 -24.6074 38.1025 -46.04 46.4375c-2.38184 1.19043 -4.36621 1.58691 -6.74805 2.38086h-0.792969c-1.98535 0.793945 -4.36621 1.19141 -6.35059 1.58789c-0.793945 0 -1.58789 0.396484 -2.38184 0.396484
c-1.58691 0.397461 -3.1748 0.793945 -4.7627 0.793945c-2.38086 0.397461 -5.15918 0.397461 -7.54102 0.397461c-9.92285 0 -19.4482 -1.58789 -28.1797 -5.16016c-15.876 -6.35059 -28.9736 -17.0664 -38.1025 -31.3545
c-1.58789 -2.38184 -2.77832 -4.76367 -3.96875 -7.14453c-1.19043 -2.38184 -2.38184 -4.7627 -3.17578 -7.54102c-2.77832 -8.33496 -4.7627 -17.4639 -4.7627 -26.9893zM256 -6.05273c34.1328 0 66.2822 8.73145 94.0645 23.8135l-66.2812 66.2822
c-9.12891 -2.38086 -18.2578 -3.57227 -28.1807 -3.57227c-4.36523 0 -8.73145 0.397461 -13.0977 0.793945c-0.792969 0 -1.98438 0.397461 -2.77832 0.397461c-3.57129 0.793945 -7.54102 1.58691 -11.1123 2.38086h-1.19141l-66.2822 -66.2822
c5.55664 -3.1748 10.7168 -5.55664 16.2734 -7.9375c0.793945 -0.397461 1.58691 -0.793945 2.38086 -1.19043c5.55664 -1.98535 11.1133 -4.36621 16.6699 -5.9541c0.793945 0 1.19043 -0.396484 1.58789 -0.396484c5.55664 -1.58789 10.7158 -2.77832 16.2725 -3.96875
c1.19043 0 1.98438 -0.397461 2.77832 -0.397461c5.55664 -1.19043 11.1133 -1.98438 17.0664 -2.77832c1.19141 0 2.38184 -0.396484 3.57227 -0.396484c5.9541 -0.397461 12.3037 -0.793945 18.2578 -0.793945zM409.997 67.7705
c0.396484 0.396484 0.396484 0.793945 0.793945 1.19043l-61.917 61.916c-6.74707 -9.52539 -14.2881 -18.2568 -23.417 -25.4014c0 -0.396484 -0.396484 -0.396484 -0.793945 -0.793945l-8.33496 -5.95312c0 -0.396484 -0.396484 -0.396484 -0.396484 -0.396484
l62.3135 -61.917c0.793945 0.793945 1.58691 1.19141 2.38086 1.98535c0.793945 0.792969 1.98438 1.58691 2.77832 2.38086c3.57227 2.77832 6.74707 5.95312 9.92285 9.12891l4.7627 4.7627c1.58789 1.58789 3.1748 3.57227 4.7627 5.15918
c2.38184 2.38184 4.7627 5.16016 7.14453 7.93848zM429.842 286.462l-66.2822 -66.2822v-0.793945c1.19043 -3.96875 1.98438 -7.54102 2.38184 -11.5098c0 -0.793945 0.396484 -1.58789 0.396484 -2.38184c0.396484 -4.36523 0.793945 -9.12793 0.793945 -13.4941
c0 -10.3193 -1.19043 -20.2422 -3.96875 -29.7676l66.2812 -66.2822c15.4795 28.5771 24.6084 61.1221 24.6084 95.6523c0 6.35059 -0.397461 12.3047 -0.793945 18.2578c0 1.19043 -0.396484 2.38184 -0.396484 3.57227
c-0.793945 5.55664 -1.58789 11.5098 -2.77832 17.0664c0 1.19043 -0.397461 1.98438 -0.397461 2.77832c-1.19043 5.55664 -2.77832 11.1133 -4.36621 16.2725c0 0.793945 -0.396484 1.19141 -0.396484 1.58789c-1.58789 5.55664 -3.57227 11.1133 -5.95312 16.6699
c-0.397461 0.793945 -0.793945 1.58789 -1.19141 2.38184c-2.38086 5.55664 -5.15918 11.1123 -7.9375 16.2725zM379.039 346.791l-61.917 -61.917c13.0977 -8.73145 24.2109 -19.8447 32.5459 -32.9424l61.916 62.3135
c-0.396484 0.396484 -0.396484 0.396484 -0.792969 0.793945zM256 390.053c-34.5303 0 -67.0762 -9.12891 -95.6533 -25.0049l65.4893 -65.8848c9.52539 2.38086 19.4473 3.96875 29.7666 3.96875c4.7627 0 9.52637 -0.397461 13.8916 -0.793945
c1.19141 0 1.98438 -0.396484 3.17578 -0.396484c3.96875 -0.397461 7.9375 -1.19141 11.9062 -2.38184c0.397461 -0.396484 0.793945 -0.396484 1.19141 -0.396484l65.8848 65.8848c-0.396484 0 -0.396484 0.397461 -0.793945 0.397461
c-0.792969 0.396484 -1.58691 0.792969 -2.38086 1.19043c-4.36621 2.38086 -9.12891 4.36523 -13.4951 6.35059c-1.19043 0.396484 -2.38086 1.19043 -3.57129 1.58691c-5.16016 2.38184 -10.3193 4.36621 -15.876 5.9541
c-0.793945 0.396484 -1.98535 0.396484 -2.77832 0.792969c-5.16016 1.58789 -9.92285 2.77832 -15.083 3.96973c-0.792969 0.396484 -1.98438 0.793945 -2.77734 0.793945c-5.55664 1.19043 -11.1133 1.98438 -17.0674 2.77832
c-1.19043 0 -2.38086 0.396484 -3.57227 0.396484c-5.95312 0.396484 -12.3037 0.793945 -18.2568 0.793945zM101.209 314.642c-0.396484 0 -0.396484 -0.396484 -0.793945 -0.793945l62.3135 -61.916c0.396484 0 0.396484 0.396484 0.396484 0.396484
c1.98535 2.77832 3.96973 5.55664 5.9541 8.33496c0.396484 0 0.396484 0.397461 0.793945 0.793945c7.14355 9.12891 15.876 17.0664 25.4014 23.417l-61.916 61.917zM82.1582 286.462c-15.4795 -28.1797 -24.2109 -60.3291 -24.2109 -94.0654
c0 -6.35059 0.396484 -12.3037 0.793945 -18.2568c0 -1.58789 0.396484 -2.77832 0.396484 -3.96973c0.793945 -5.95312 1.58789 -11.5098 2.77832 -17.0664c0.396484 -0.793945 0.396484 -1.98438 0.793945 -2.77832c1.19043 -4.7627 2.38086 -9.92188 3.96875 -14.6846
c0.397461 -1.19141 0.397461 -1.98535 0.793945 -3.17578c1.98438 -5.55664 3.96875 -10.7158 5.95312 -15.876c0.397461 -1.19043 1.19141 -2.38086 1.58789 -3.57227c1.98438 -4.36523 3.96875 -8.73145 6.35059 -13.0977
c0.396484 -1.19043 0.793945 -1.98438 1.19043 -2.77832c0 -0.396484 0.397461 -0.396484 0.397461 -0.793945l65.8848 65.4893c-0.396484 0.396484 -0.396484 0.792969 -0.396484 1.19043c-0.793945 3.96875 -1.58789 7.9375 -2.38184 11.9072
c0 1.19043 -0.396484 1.98438 -0.396484 3.1748c-0.397461 4.7627 -0.793945 9.12891 -0.793945 13.8916c0 9.92188 1.19043 19.0508 3.57227 28.1797z" />
    <glyph glyph-name="uniF14B" unicode="&#xf14b;" 
d="M469.135 315.039c8.73145 -0.397461 15.876 -7.54102 15.876 -16.2734v-104.781c0 -1.98438 -0.396484 -3.96875 -1.19043 -5.95312c-2.77832 -7.14453 -71.4424 -176.62 -222.264 -223.852c-1.58789 -0.396484 -3.1748 -0.793945 -4.7627 -0.793945h-1.58789
c-1.58789 0 -3.1748 0.397461 -4.7627 0.793945c-150.821 47.2314 -219.485 216.707 -222.264 223.852c-0.793945 1.98438 -1.19043 3.96875 -1.19043 5.95312v104.781c0 9.12891 7.14453 16.2734 15.876 16.2734c0.793945 0 100.019 2.38086 200.434 102.797
c3.17578 3.1748 7.14453 4.7627 11.5107 4.7627h1.58691c4.36621 0 8.33496 -1.58789 11.5107 -4.7627c101.209 -100.416 200.434 -102.797 201.228 -102.797zM452.862 197.16v86.9209c-33.3398 4.36523 -113.116 22.623 -196.862 100.812
c-83.7461 -78.1885 -163.522 -96.4463 -196.862 -100.812v-86.5244c9.12891 -21.4326 73.0293 -159.95 196.862 -201.228c123.833 41.2773 187.733 179.795 196.862 200.831z" />
    <glyph glyph-name="uniF112" unicode="&#xf112;" 
d="M150.028 101.11c21.8291 0 41.2773 -9.92285 54.375 -26.1953l33.3389 79.3799l-104.781 244.887c-3.57227 8.33496 0 17.8604 8.33496 21.4326c8.33496 3.57129 17.8604 0 21.4326 -8.33496l92.4775 -216.311l91.2871 216.311
c3.57227 7.9375 13.0977 11.9062 21.4326 7.9375c8.33496 -3.1748 12.3037 -12.7002 8.73145 -21.0352l-103.591 -244.887l33.3398 -78.5859c13.0977 16.2725 32.9424 26.5918 55.1689 26.5918c38.8965 0 70.251 -31.3555 70.251 -70.251
c0 -38.8965 -31.3545 -70.251 -70.251 -70.251c-37.3086 0 -67.8701 29.3701 -69.8545 66.2822l-36.1172 84.5391l-36.1182 -85.333c-1.98438 -36.5146 -32.1484 -65.8857 -69.457 -65.8857c-38.5 0 -69.8545 31.3555 -69.8545 69.8545s31.3545 69.8545 69.8545 69.8545z
M187.336 31.6523c-0.396484 20.6387 -17.0664 37.3086 -37.3076 37.3086c-20.6396 0 -37.3086 -16.6699 -37.3086 -37.3086s16.6689 -37.3086 37.3086 -37.3086c20.6387 0 37.3076 16.6699 37.3076 37.3086zM361.575 70.1523
c-21.0361 0 -37.7051 -17.0674 -37.7051 -37.7061s17.0664 -37.7051 37.7051 -37.7051s37.7051 17.0664 37.7051 37.7051s-16.6689 37.7061 -37.7051 37.7061z" />
    <glyph glyph-name="uniF127" unicode="&#xf127;" 
d="M41.6748 214.227c-8.73242 0 -16.2734 7.54102 -16.2734 16.2725v175.826c0 9.12891 7.14453 16.2734 16.2734 16.2734h175.826c9.12891 0 16.2725 -7.14453 16.2725 -16.2734v-175.826c0 -9.12891 -7.14355 -16.2725 -16.2725 -16.2725h-175.826zM57.9473 390.053
v-143.28h143.28v143.28h-143.28zM486.599 406.325v-175.826c0 -9.12891 -7.14453 -16.2725 -16.2734 -16.2725h-175.826c-9.12891 0 -16.2725 7.14355 -16.2725 16.2725v175.826c0 9.12891 7.14355 16.2734 16.2725 16.2734h175.826
c9.12891 0 16.2734 -7.14453 16.2734 -16.2734zM454.053 246.772v143.28h-143.28v-143.28h143.28zM41.6748 -38.5986c-8.73242 0 -16.2734 7.54102 -16.2734 16.2734v175.826c0 9.12891 7.14453 16.2725 16.2734 16.2725h175.826
c9.12891 0 16.2725 -7.14355 16.2725 -16.2725v-175.826c0 -9.12891 -7.14355 -16.2734 -16.2725 -16.2734h-175.826zM57.9473 137.228v-143.28h143.28v143.28h-143.28zM470.325 169.773c8.73242 0 16.2734 -7.54102 16.2734 -16.2725v-175.826
c0 -9.12891 -7.14453 -16.2734 -16.2734 -16.2734h-175.826c-9.12891 0 -16.2725 7.14453 -16.2725 16.2734v175.826c0 9.12891 7.14355 16.2725 16.2725 16.2725h175.826zM454.053 -6.05273v143.28h-143.28v-143.28h143.28z" />
    <glyph glyph-name="uniF130" unicode="&#xf130;" 
d="M470.325 406.325c9.12891 0 16.2734 -7.14355 16.2734 -16.2725v-205.197v-83.7451c0 -9.12891 -7.14453 -16.2734 -16.2734 -16.2734h-198.053v-74.6172h90.8906c9.12793 0 16.2725 -7.14355 16.2725 -16.2725s-7.14453 -16.2725 -16.2725 -16.2725h-214.326
c-9.12793 0 -16.2725 7.14355 -16.2725 16.2725s7.14453 16.2725 16.2725 16.2725h90.8906v74.6172h-198.053c-9.12891 0 -16.2734 7.14453 -16.2734 16.2734v83.7451v205.197c0 9.12891 7.14453 16.2725 16.2734 16.2725h428.65zM454.053 117.383v51.5967h-396.105
v-51.5967h396.105zM454.053 201.129v172.651h-396.105v-172.651h396.105z" />
    <glyph glyph-name="uniF12F" unicode="&#xf12f;" 
d="M362.766 315.039c9.12891 0 16.2734 -7.14453 16.6699 -16.2734c0 -9.12891 -7.14453 -16.2725 -16.2725 -16.2725h-213.929c-9.12891 0 -16.2734 7.14355 -16.2734 16.2725s7.14453 16.2734 16.2734 16.2734h213.531zM362.766 101.11
c9.12891 0 16.2734 -7.14453 16.6699 -16.2734c0 -9.12793 -7.14453 -16.2725 -16.2725 -16.2725h-213.929c-9.12891 0 -16.2734 7.14453 -16.2734 16.2725c0 9.12891 7.14453 16.2734 16.2734 16.2734h213.531zM362.766 208.272
c9.12891 0 16.2734 -7.14355 16.6699 -16.2725c0 -9.12891 -7.14453 -16.2725 -16.2725 -16.2725h-213.929c-9.12891 0 -16.2734 7.14355 -16.2734 16.2725s7.14453 16.2725 16.2734 16.2725h213.531z" />
    <glyph glyph-name="uniF100" unicode="&#xf100;" 
d="M256 422.201c127.008 0 230.201 -103.193 230.201 -230.201s-103.193 -230.201 -230.201 -230.201c-127.404 0 -230.599 103.193 -230.599 230.201s103.591 230.201 230.599 230.201zM256 -6.05273c109.147 0 198.053 88.9053 198.053 198.053
s-88.9053 198.053 -198.053 198.053s-198.053 -88.9053 -198.053 -198.053s88.9053 -198.053 198.053 -198.053zM361.972 210.258c9.12891 0 16.2734 -6.74805 16.2734 -15.876c0 -9.12891 -7.14453 -16.2734 -16.2734 -16.2734h-89.6992v-89.6992
c0 -9.12891 -7.14355 -16.2725 -16.2725 -16.2725s-16.2725 7.14355 -16.2725 16.2725v89.6992h-89.6992c-9.12891 0 -16.2734 7.14453 -16.2734 16.2734c0 9.12793 7.14453 16.2725 16.2734 16.2725h89.6992v89.6992c0 9.12891 7.14355 16.2725 16.2725 16.2725
s16.2725 -7.14355 16.2725 -16.2725v-90.0957h89.6992z" />
    <glyph glyph-name="uniF129" unicode="&#xf129;" 
d="M256 -38.5986c-127.008 0 -230.201 103.591 -230.201 230.599s102.797 230.201 230.201 230.201s230.599 -102.797 230.599 -230.201s-103.591 -230.599 -230.599 -230.599zM256 390.053c-109.147 0 -198.053 -88.9053 -198.053 -198.053
s88.9053 -198.053 198.053 -198.053s198.053 88.9053 198.053 198.053s-88.9053 198.053 -198.053 198.053zM277.829 76.8994l-104.781 104.781c-3.1748 3.1748 -4.7627 7.14453 -4.7627 11.5098c0 4.36621 1.58789 8.33496 4.7627 11.5107l104.781 104.781
c6.35059 6.35059 16.6699 6.35059 23.0205 0s6.35059 -16.6699 0 -23.0205l-93.2715 -93.2715l93.2715 -93.2715c6.35059 -6.34961 6.35059 -16.6689 0 -23.0195c-3.1748 -3.17578 -7.54102 -4.7627 -11.5098 -4.7627c-4.36621 0 -8.33496 1.58691 -11.5107 4.7627z" />
    <glyph glyph-name="uniF11B" unicode="&#xf11b;" 
d="M41.6748 -8.03711c-8.73242 0 -16.2734 7.14453 -16.2734 16.2725v363.56c0 9.12891 7.14453 16.2734 16.2734 16.2734h171.063c4.36523 0 8.73145 -1.98438 11.9062 -5.55664l38.5 -42.8652h206.784c9.12891 0 16.2725 -7.14453 16.2725 -16.2725v-315.139
c0 -9.12793 -7.14355 -16.2725 -16.2725 -16.2725h-428.254zM57.9473 355.126v-331.411h396.105v282.989h-198.053c-4.36621 0 -8.73145 1.98438 -11.9072 5.55664l-38.499 42.8652h-147.646z" />
    <glyph glyph-name="uniF139" unicode="&#xf139;" 
d="M42.0713 306.307c-9.12891 0 -16.2725 7.14453 -16.2725 16.2734v83.7451c0 9.12891 7.14355 16.2734 16.2725 16.2734h427.857c9.12891 0 16.2725 -7.14453 16.2725 -16.2734v-83.7451c0 -9.12891 -7.14355 -16.2734 -16.2725 -16.2734h-25.7988v-188.924
c0 -9.12891 -7.14355 -16.2725 -16.2725 -16.2725h-59.9316l73.0293 -114.704c5.16016 -7.54102 2.77832 -17.4639 -4.7627 -22.2266c-2.77832 -1.58789 -5.55664 -2.38086 -8.73145 -2.38086c-5.16016 0 -10.3203 2.77832 -13.4951 7.54102l-84.5391 132.167h-147.646
l-84.54 -131.771c-2.77832 -4.7627 -8.33496 -7.54102 -13.4941 -7.54102c-3.17578 0 -5.9541 0.793945 -8.73242 2.38184c-7.54102 4.7627 -9.52539 14.6846 -4.7627 22.2256l73.4268 114.308h-59.5352c-9.12891 0 -16.2725 7.14355 -16.2725 16.2725v188.924h-25.7988z
M411.584 133.259h0.397461v173.048h-311.566v-173.048h72.2363h1.58691h157.967c3.57129 1.19043 7.14355 1.19043 10.7158 0h68.6631zM57.9473 390.053h0.396484v-51.2002h25.7988h343.715h25.7988v51.2002h-395.709zM148.44 165.011
c-4.36621 0 -8.33496 1.58789 -11.9072 4.36621c-6.35059 6.35059 -6.35059 16.6699 0 23.0195l32.5459 32.5459c3.96875 4.36621 9.92285 5.9541 15.4795 4.36621l52.3906 -13.4951l47.6279 56.3604c5.95312 6.74707 16.2725 7.9375 23.0195 1.98438
s7.93848 -16.2734 1.98438 -23.0205l-53.9775 -64.2979c-4.36621 -4.7627 -10.7168 -6.74707 -16.6699 -5.15918l-53.1846 13.8916l-25.7988 -25.7988c-3.1748 -3.1748 -7.54102 -4.7627 -11.5098 -4.7627z" />
    <glyph glyph-name="uniF14E" unicode="&#xf14e;" 
d="M146.456 -5.65625c-7.93848 1.19141 -13.8916 7.93848 -13.8916 16.2734v395.708c0 4.7627 1.98438 9.12891 5.55664 12.3047c3.57227 2.77832 8.33496 4.36523 13.0977 3.57129l214.325 -32.5449c7.93848 -1.19141 13.8916 -7.93848 13.8916 -15.876v-395.709
c0 -4.7627 -1.98438 -9.12891 -5.55664 -12.3037c-3.1748 -2.77832 -6.74707 -3.96875 -10.7158 -3.96875h-2.38184zM165.11 387.274v-363.163l181.779 -27.3857v363.163z" />
    <glyph glyph-name="uniF13C" unicode="&#xf13c;" 
d="M256 422.201c127.008 0 230.201 -103.59 230.201 -230.598s-103.193 -230.202 -230.201 -230.202c-63.5039 0 -121.055 25.7988 -162.729 67.4727c0 0.397461 -0.397461 0.397461 -0.397461 0.397461c0 0.396484 -0.396484 0.793945 -0.396484 0.793945
c-41.2773 41.6738 -66.6787 98.8271 -66.6787 161.935c0 127.008 103.193 230.201 230.201 230.201zM57.9473 192c0 -48.8184 17.8604 -93.2715 47.2314 -127.802l278.623 278.623c-34.5303 28.9736 -78.9834 46.835 -127.802 46.835
c-109.147 0 -198.053 -88.5088 -198.053 -197.656zM256 -6.05273c109.147 0 198.053 88.9053 197.656 197.656c0 48.8184 -17.8613 93.668 -47.2314 128.198l-278.623 -278.623c34.5303 -29.3711 79.3799 -47.2314 128.198 -47.2314z" />
    <glyph glyph-name="uniF147" unicode="&#xf147;" 
d="M70.251 -21.5322h0.397461v322.68c-25.7988 7.14355 -44.8496 30.958 -44.8496 59.1377c0 33.7363 26.9893 61.5195 61.1221 61.5195c34.1338 0 61.5195 -27.7832 61.5195 -61.5195c0 -28.5762 -19.4482 -52.3906 -45.6436 -59.5352v-322.282
c0 -9.12793 -7.14453 -16.2725 -16.2725 -16.2725c-9.12891 0 -16.2734 7.14453 -16.2734 16.2725zM57.9473 360.285c0 -15.876 13.0977 -28.9736 28.9736 -28.9736s28.9736 13.0977 28.9736 28.9736s-13.0977 28.9736 -28.9736 28.9736
s-28.9736 -13.0977 -28.9736 -28.9736zM255.604 421.805c9.12793 0 16.2725 -7.14453 16.2725 -16.2725v-166.698c26.1953 -7.14453 45.6436 -30.958 45.6436 -59.5352c0 -28.5762 -19.4482 -52.3906 -45.6436 -59.5342v-141.693
c0 -9.12891 -7.14453 -16.2725 -16.2725 -16.2725c-9.12891 0 -16.2734 7.14355 -16.2734 16.2725v141.693c-25.7979 7.14355 -44.8496 30.958 -44.8496 59.1377s19.0518 51.9941 44.8496 59.1377v167.492c0 9.12793 7.14453 16.2725 16.2734 16.2725zM285.37 178.902
c0 16.2725 -13.0977 28.9736 -28.9736 28.9736s-28.9736 -13.0977 -28.9736 -28.9736s13.0977 -28.9736 28.9736 -28.9736s28.9736 13.0977 28.9736 28.9736zM440.955 82.8525c26.1953 -7.14355 45.6436 -30.958 45.2461 -59.1377
c0 -34.1338 -27.3857 -61.5195 -61.5186 -61.5195c-34.1338 0 -61.5195 27.7832 -61.5195 61.5195c0 28.1797 19.0508 51.9941 45.2461 59.1377v322.68c0 9.12793 7.14453 16.2725 16.2734 16.2725c9.12793 0 16.2725 -7.14453 16.2725 -16.2725v-322.68zM425.079 -5.25879
c15.876 0 28.9736 13.0977 28.9736 28.9736s-13.0977 28.9736 -28.9736 28.9736s-28.9736 -13.0977 -28.9736 -28.9736s13.0977 -28.9736 28.9736 -28.9736z" />
    <glyph glyph-name="uniF116" unicode="&#xf116;" 
d="M473.104 -5.65625c9.12891 0 16.6699 -7.54102 16.6699 -16.2725s-7.14355 -16.2725 -16.2725 -16.2725h-434.604c-8.73242 0 -16.2734 7.54102 -16.2734 16.2725s7.14453 16.2725 16.2734 16.2725h434.207zM22.623 138.419c0 4.36523 1.98438 8.33496 4.7627 11.5098
l212.738 212.341l53.1846 53.582c6.74707 6.34961 17.0664 6.34961 23.417 0l76.2051 -76.999c6.34961 -6.74707 6.34961 -17.0664 0 -23.417l-265.923 -265.922c-3.1748 -3.17578 -7.14453 -4.76367 -11.5098 -4.76367l-76.999 -0.396484
c-4.36523 0 -8.33496 1.58789 -11.5098 4.7627c-3.17578 3.1748 -4.7627 7.54102 -4.7627 11.9072zM305.216 380.924l-30.165 -30.1641l53.582 -53.5811l30.1641 30.1641zM55.5654 131.274l-0.396484 -53.5811l53.9785 0.396484l196.068 195.671l-53.582 53.582z" />
    <glyph glyph-name="uniF15A" unicode="&#xf15a;" 
d="M324.267 422.201c89.6992 0 162.729 -72.6318 162.729 -161.935c0 -2.38184 -0.396484 -4.36621 -0.396484 -6.74707v-1.58789c0 -85.333 -69.458 -154.791 -154.791 -154.791c-9.12891 0 -16.2725 7.14453 -16.2725 16.2734s7.14355 16.2725 16.2725 16.2725
c66.6787 0 121.055 53.582 122.245 119.864v3.1748v2.77832c0.396484 1.58789 0.396484 3.1748 0.396484 4.7627c0 71.8389 -58.3438 130.183 -130.183 130.183c-70.251 0 -127.008 -55.1689 -129.786 -125.022c-0.396484 -6.35059 -3.96875 -11.9072 -9.52539 -14.2891
c-5.55664 -2.38086 -11.9072 -1.58691 -16.6699 1.98438c-13.0977 9.92285 -28.5762 15.083 -45.2461 14.2891c-36.1182 -1.58789 -65.4883 -34.1338 -65.4883 -71.8389c0 -36.5146 29.7666 -65.8857 65.8848 -65.8857c9.12891 0 16.2734 -7.14355 16.2734 -16.2725
s-7.14453 -16.2734 -16.2734 -16.2734c-54.375 0 -98.4307 44.0566 -98.4307 98.4316c0 55.5654 42.4678 101.606 96.4463 103.591c15.082 0.793945 29.7676 -1.98438 43.6592 -7.54102c14.6846 75.0137 80.5703 130.579 159.156 130.579zM246.077 148.341l104.782 -104.781
c6.34961 -6.35059 6.34961 -16.6699 0 -23.0205c-3.17578 -3.1748 -7.54199 -4.7627 -11.5107 -4.7627c-4.36523 0 -8.33496 1.58789 -11.5098 4.7627l-76.999 76.999v-120.261c0 -9.12891 -7.14355 -16.2725 -16.2725 -16.2725s-16.2725 7.14355 -16.2725 16.2725v120.261
l-77.3955 -77.3955c-6.35059 -6.35059 -16.6699 -6.35059 -23.0205 0s-6.35059 16.6699 0 23.0205l105.179 105.178c6.35059 6.35059 16.6699 6.35059 23.0195 0z" />
    <glyph glyph-name="uniF140" unicode="&#xf140;" 
d="M256 -37.8047c-126.611 0 -229.805 103.193 -229.805 229.805s103.193 229.805 229.805 229.805s229.805 -103.193 229.805 -229.805s-103.193 -229.805 -229.805 -229.805zM256 389.656c-108.75 0 -197.656 -88.9062 -197.656 -197.656
s88.5088 -197.656 197.656 -197.656s197.656 88.5088 197.656 197.656s-88.9062 197.656 -197.656 197.656zM150.028 178.108c-8.73242 0 -16.2734 7.14453 -16.2734 16.2734c0 9.12793 7.14453 16.2725 16.2734 16.2725h211.547
c9.12891 0 16.2725 -7.14453 16.2725 -16.2725c0 -9.12891 -7.14355 -16.2734 -16.2725 -16.2734h-211.547z" />
    <glyph glyph-name="uniF12A" unicode="&#xf12a;" 
d="M227.82 -37.0107c-7.14453 2.77832 -11.1133 10.3193 -9.52539 17.8604l31.3545 180.986l-116.688 0.793945c-6.34961 0 -11.9062 3.57129 -14.6846 9.12793s-1.98535 12.3047 1.98438 17.0674l180.589 227.423c4.7627 5.95312 12.7012 7.93848 19.4482 4.7627
c6.74707 -3.1748 10.7158 -10.7158 9.12891 -17.8604l-30.5615 -161.935l105.575 -0.793945c5.95312 0 11.5098 -3.57227 14.2881 -8.73242c2.77832 -5.15918 2.38184 -11.9062 -1.19043 -16.6689l-170.27 -246.078c-3.17578 -4.7627 -8.33496 -7.14355 -13.4951 -7.14355
c-1.98438 0 -3.96875 0.396484 -5.95312 1.19043zM166.301 194.778l102.4 -0.793945c4.7627 0 9.12793 -1.98438 11.9062 -5.55664c3.17578 -3.57227 4.36621 -8.33496 3.57227 -13.0977l-21.8291 -127.802l110.734 160.348l-94.0645 0.396484
c-4.7627 0 -9.12891 2.38184 -12.3037 5.9541c-3.17578 3.96875 -4.36621 8.73145 -3.57227 13.4941l22.2256 117.086z" />
    <glyph glyph-name="uniF14D" unicode="&#xf14d;" 
d="M160.744 -17.5625c-79.3799 36.1172 -134.945 116.291 -135.343 209.166c0 32.9424 7.14453 64.2969 19.8447 92.874c0 0.793945 0.397461 1.19043 0.793945 1.98438c36.5146 80.1738 116.688 136.137 210.356 136.533c32.9434 0 64.2979 -7.14355 92.875 -19.8447
c0.793945 -0.396484 1.19043 -0.793945 1.98438 -1.19043c79.7764 -36.1182 135.343 -116.292 135.343 -209.563c0 -33.3389 -7.14453 -65.0908 -19.8447 -93.668c-0.397461 -0.793945 -0.793945 -1.19043 -1.19141 -1.98438
c-36.5146 -79.3799 -116.688 -134.945 -209.562 -134.945c-33.3398 0 -64.6943 7.14355 -93.2715 19.8447c-0.793945 0 -1.19043 0.396484 -1.98438 0.793945zM256 -6.05273c76.2051 0 142.09 43.2617 175.826 106.369l-68.6631 67.8691l-165.507 -165.507
c18.2568 -5.55664 38.1016 -8.73145 58.3438 -8.73145zM255.604 107.063l84.1426 84.1426l-85.334 84.54l-83.7451 -83.7461zM454.053 192c0 76.2051 -43.6592 142.486 -107.163 175.43l-69.457 -69.0605l167.491 -165.507c5.9541 18.6543 9.12891 38.499 9.12891 59.1377z
M256 390.053c-76.6016 0 -142.884 -43.6592 -175.826 -107.56l67.4727 -67.4727l166.697 166.301c-18.2568 5.55664 -38.1016 8.73145 -58.3438 8.73145zM66.6787 249.947c-5.55664 -18.2578 -8.73145 -37.7051 -9.12793 -58.3438
c0 -76.2051 43.6582 -142.487 107.162 -175.43l67.8701 67.8691l-96.4463 96.4473v0z" />
    <glyph glyph-name="uniF101" unicode="&#xf101;" 
d="M433.017 301.941l53.1846 -318.71c0.397461 -1.58789 0.793945 -3.17578 0.793945 -5.16016c0 -9.12891 -7.14355 -16.2725 -16.2725 -16.2725h-0.397461h-428.65c-4.7627 0 -9.12891 1.98438 -12.3047 5.55664c-3.1748 3.57129 -4.36523 8.33398 -3.57129 13.0977
l53.1846 321.488c1.19043 7.9375 7.9375 13.4941 15.876 13.4941h91.2861v37.3086c0 38.499 31.3555 69.8545 69.8545 69.8545s69.8545 -31.3555 69.8545 -69.8545v-37.3086h91.2861c7.93848 0 14.6855 -5.55664 15.876 -13.4941zM218.691 352.744v-37.3086h74.6172v37.3086
c0 20.6387 -16.6699 37.3086 -37.3086 37.3086s-37.3086 -16.6699 -37.3086 -37.3086zM60.7256 -6.05273h390.549l-48.0244 288.942h-77.3955v-90.8896c0 -9.12891 -7.14453 -16.2725 -16.2734 -16.2725c-9.12793 0 -16.2725 7.14355 -16.2725 16.2725v90.8896h-74.6172
v-90.8896c0 -9.12891 -7.14453 -16.2725 -16.2725 -16.2725c-9.12891 0 -16.2734 7.14355 -16.2734 16.2725v90.8896h-77.3955z" />
    <glyph glyph-name="uniF104" unicode="&#xf104;" 
d="M487.789 300.354c0 -6.35059 -3.57227 -11.9072 -9.12891 -14.6855l-186.146 -92.874l186.146 -93.2715c5.55664 -2.77832 9.12891 -8.33496 9.12891 -14.6855s-3.57227 -11.9062 -9.12891 -14.6846l-215.516 -107.561
c-1.98438 -1.19043 -4.76367 -1.58691 -7.14453 -1.58691c-3.1748 0 -5.95312 0.793945 -8.73145 2.38086c-4.7627 3.17578 -7.54102 8.33496 -7.54102 13.8916v188.924l-191.703 -96.0488c-2.38086 -1.19141 -4.7627 -1.58789 -7.14355 -1.58789
c-5.9541 0 -11.9072 3.57227 -14.6855 9.12891c-4.36621 7.9375 -0.793945 17.8604 7.14453 21.8291l186.146 93.668l-186.146 92.875c-7.93848 3.96875 -11.1133 13.8916 -7.14453 21.8291c3.96875 7.93848 13.8916 11.1133 21.8291 7.14453l191.703 -96.0498v188.924
c0 5.55664 2.77832 11.1133 7.54102 13.8916c4.7627 3.1748 10.7158 3.1748 15.876 0.793945l215.516 -107.56c5.55664 -2.77832 9.12891 -8.33496 9.12891 -14.6855zM272.272 3.87012l162.729 80.9668l-162.729 81.3643v-162.331zM272.272 218.989l162.729 81.3643
l-162.729 81.3643v-162.729z" />
    <glyph glyph-name="uniF158" unicode="&#xf158;" 
d="M231.393 390.053c-70.252 0 -127.802 -57.5508 -127.802 -127.802v-86.5234h275.845c9.12891 0 16.2734 -7.14453 16.2734 -16.2734v-181.779c0 -9.12891 -7.14453 -16.2734 -16.2734 -16.2734h-291.721c-9.12891 0 -16.2734 7.14453 -16.2734 16.2734v181.779v102.797
c0 88.1123 71.4424 160.348 159.951 160.348c88.5078 0 160.347 -71.8389 160.347 -160.348c0 -9.12891 -7.14355 -16.2725 -16.2725 -16.2725s-16.2734 7.14355 -16.2734 16.2725c0 70.6484 -57.1533 127.802 -127.801 127.802zM363.163 143.182h-259.572v-149.234h259.572
v149.234zM207.578 68.5645c0 17.4635 8.73177 26.1953 26.1953 26.1953s26.1953 -8.73177 26.1953 -26.1953c0 -17.4635 -8.73177 -26.1953 -26.1953 -26.1953c-17.4635 3.8147e-06 -26.1953 8.73177 -26.1953 26.1953z" />
    <glyph glyph-name="uniF118" unicode="&#xf118;" 
d="M470.325 143.578c8.73242 0 16.2734 -7.54102 15.876 -16.2725v-149.234c0 -9.12891 -7.14355 -16.2725 -16.2725 -16.2725h-428.254c-9.12891 0 -16.2734 7.14355 -16.2734 16.2725v428.254c0 9.12891 7.14453 16.2734 16.2734 16.2734h149.233
c9.12891 0 16.2734 -7.14453 16.2734 -16.2734c0 -9.12793 -7.14453 -16.2725 -16.2734 -16.2725h-132.961v-395.709h396.105v132.962c0 9.12891 7.14453 16.2725 16.2725 16.2725zM485.408 412.279c0.396484 -1.98438 1.19043 -3.96875 0.792969 -5.9541v-214.325
c0 -9.12891 -7.14355 -16.2725 -16.2725 -16.2725s-16.2725 7.14355 -16.2725 16.2725v175.032l-186.543 -186.542c-3.17578 -3.17578 -7.54102 -4.7627 -11.5098 -4.7627c-4.36621 0 -8.33496 1.58691 -11.5107 4.7627c-6.35059 6.34961 -6.35059 16.6699 0 23.0195
l186.543 186.543h-175.032c-9.12891 0 -16.2734 7.14453 -16.2734 16.2725c0 9.12891 7.14453 16.2734 16.2734 16.2734h214.325c1.98438 0 3.96875 -0.397461 5.95312 -1.19043h0.397461c3.96875 -1.98535 7.14355 -5.16016 9.12891 -9.12891z" />
    <glyph glyph-name="uniF13F" unicode="&#xf13f;" 
d="M470.325 422.201c8.73242 0 15.876 -7.14355 15.876 -15.876v-148.043c0 -9.12891 -7.14355 -16.2725 -16.2725 -16.2725h-148.044c-9.12793 0 -16.2725 7.14355 -16.2725 16.2725s7.14453 16.2725 16.2725 16.2725h113.91
c-31.752 69.8545 -101.605 115.498 -179.795 115.498c-109.147 0 -198.053 -88.9053 -198.053 -198.053s88.5088 -198.449 197.656 -198.449c109.146 0 198.053 88.9053 198.053 198.053c0 9.12793 7.14355 16.2725 16.2725 16.2725s16.2725 -7.14453 16.2725 -16.2725
c0 -127.008 -103.193 -230.202 -230.201 -230.202s-230.201 102.797 -230.201 230.202c0 127.404 103.193 230.598 230.201 230.598c82.9521 0 157.172 -44.0557 198.053 -112.719v96.4463c0 9.12891 7.14453 16.2725 16.2725 16.2725z" />
    <glyph glyph-name="uniF115" unicode="&#xf115;" 
d="M244.093 22.9209l-225.835 225.836c-6.74805 6.74707 -6.74805 17.4629 0 24.2109c6.74707 6.74707 17.4629 6.74707 24.21 0l196.466 -196.862v329.029c0 9.52539 7.54102 17.0664 17.0664 17.0664s17.0664 -7.54102 17.0664 -17.0664v-328.633l197.259 196.466
c6.74805 6.74707 17.4639 6.74707 24.2109 0c6.74707 -6.74805 6.74707 -17.4639 0 -24.2109l-225.835 -225.836c-1.58789 -1.58789 -3.57227 -2.77832 -5.55664 -3.57227h-0.397461c-1.98438 -0.793945 -3.96875 -1.19043 -6.35059 -1.19043
c-2.38086 0 -4.36523 0.396484 -6.34961 1.19043h-0.397461c-1.98438 0.793945 -3.96875 1.98438 -5.55664 3.57227zM30.1641 -38.5986c-9.52539 0 -17.0664 7.93848 -17.0664 17.0664c0 9.52637 7.54102 17.0674 17.0664 17.0674h451.672
c9.52539 0 17.0664 -7.54102 17.0664 -17.0674c0 -9.52539 -7.54102 -17.0664 -17.0664 -17.0664h-451.672z" />
    <glyph glyph-name="uniF123" unicode="&#xf123;" 
d="M41.6748 -38.2012c-8.73242 0 -15.876 7.14355 -17.4639 15.876v214.325c0 1.19043 0 1.98438 0.396484 3.1748c0.397461 0.793945 0.397461 1.19141 0.793945 1.98535c0 0.396484 0.397461 0.792969 0.397461 1.19043
c0.396484 0.793945 0.792969 1.19043 1.19043 1.98438c0 0.396484 0.396484 0.396484 0.396484 0.793945c0.397461 0.793945 1.19141 1.58691 1.98438 2.38086l214.326 214.326c6.35059 6.34961 16.6699 6.34961 23.0205 0l214.325 -214.326
c0.793945 -0.793945 1.58789 -1.58691 1.98438 -2.38086c0 -0.397461 0.396484 -0.397461 0.396484 -0.793945c0.397461 -0.397461 0.793945 -1.19043 1.19141 -1.98438c0.396484 0 0.396484 -0.397461 0.396484 -0.793945
c0.397461 -0.793945 0.793945 -1.19043 0.793945 -1.98438c0.396484 -1.19043 0.396484 -1.98438 0.396484 -3.17578v-214.325c0 -9.12891 -7.14355 -16.2725 -16.2725 -16.2725h-157.172c-0.793945 -0.397461 -1.98438 -0.397461 -2.77832 -0.397461h-107.163
c-0.793945 0 -1.98438 0.397461 -2.77832 0.397461h-158.362zM293.705 -5.65625v74.6172h-74.6162v-74.6172h74.6162zM256 383.306l-175.032 -175.033h350.064zM57.9473 175.728v-181.384h128.596v90.8906c0 9.12793 7.14355 16.2725 16.2725 16.2725h107.163
c9.12891 0 16.2725 -7.14355 16.2725 -16.2725v-91.2871h127.405v181.78h-395.709z" />
    <glyph glyph-name="uniF107" unicode="&#xf107;" 
d="M41.6748 -20.7383c-8.73242 0 -16.2734 7.14453 -16.2734 15.876v363.56c0 9.12891 7.14453 16.2734 16.2734 16.2734h83.3486v13.8916c0 9.12793 7.14355 16.2725 16.2725 16.2725s16.2734 -7.14453 16.2734 -16.2725v-13.8916h199.243v13.8916
c0 9.12793 7.14453 16.2725 16.2725 16.2725c9.12891 0 16.2734 -7.14453 16.2734 -16.2725v-13.8916h80.5703c9.12891 0 16.2725 -7.14453 16.2725 -16.2734v-363.162c0 -9.12891 -7.14355 -16.2734 -16.2725 -16.2734h-428.254zM57.9473 342.425v-42.0713h396.105v42.0713
h-64.6943v-8.73145c0 -9.12891 -7.14453 -16.2734 -16.2734 -16.2734c-9.12793 0 -16.2725 7.14453 -16.2725 16.2734v8.73145h-199.243v-8.73145c0 -9.12891 -7.14453 -16.2734 -16.2734 -16.2734s-16.2725 7.14453 -16.2725 16.2734v8.73145h-67.0762zM57.9473 267.808
v-256.396h395.709v256.396h-395.709zM373.085 193.19c9.12891 0 16.2734 -7.14355 16.2734 -16.2725s-7.14453 -16.2734 -16.2734 -16.2734h-234.17c-9.12891 0 -16.2734 7.14453 -16.2734 16.2734s7.14453 16.2725 16.2734 16.2725h234.17zM256 114.604
c9.12891 0 16.2725 -7.14355 16.2725 -16.2725s-7.14355 -16.2734 -16.2725 -16.2734h-117.085c-9.12891 0 -16.2734 7.14453 -16.2734 16.2734s7.14453 16.2725 16.2734 16.2725h117.085z" />
    <glyph glyph-name="uniF109" unicode="&#xf109;" 
d="M256 -38.5986c-127.008 0 -230.599 103.591 -230.599 230.599s103.591 230.599 230.599 230.599s230.599 -103.194 230.599 -230.599s-103.591 -230.599 -230.599 -230.599zM256 390.053c-109.147 0 -198.053 -88.9053 -198.053 -198.053
s88.9053 -198.053 198.053 -198.053s198.053 88.9053 198.053 198.053s-88.9053 198.053 -198.053 198.053zM169.476 107.857c-6.34961 6.35059 -6.34961 16.6699 0 23.0205l63.5039 63.5039l-63.5039 63.5039c-6.34961 6.34961 -6.34961 16.6689 0 23.0195
c6.35059 6.35059 16.6699 6.35059 23.0205 0l63.5039 -63.5039l63.5039 63.5039c6.35059 6.35059 16.6699 6.35059 23.0205 0c6.34961 -6.35059 6.34961 -16.6699 0 -23.0195l-63.5039 -63.5039l63.5039 -63.5039c6.34961 -6.35059 6.34961 -16.6699 0 -23.0205
c-3.17578 -3.1748 -7.14453 -4.7627 -11.5107 -4.7627c-4.36523 0 -8.33496 1.58789 -11.5098 4.7627l-63.5039 63.5039l-63.5039 -63.5039c-3.1748 -3.1748 -7.14453 -4.7627 -11.5098 -4.7627c-4.36621 0 -8.33496 1.58789 -11.5107 4.7627z" />
    <glyph glyph-name="uniF124" unicode="&#xf124;" 
d="M84.9365 51.8945c5.55664 62.3135 44.0557 114.704 98.4307 140.105c-53.9785 25.4014 -92.874 77.792 -98.4307 140.105c-6.74707 1.98438 -11.5098 8.33496 -11.5098 15.4795v57.9473c0 9.12793 7.14355 16.2725 16.2725 16.2725h332.602
c9.12891 0 16.2725 -7.14453 16.2725 -16.2725v-57.9473c0 -7.14453 -4.7627 -13.4951 -11.5098 -15.4795c-5.55664 -62.3135 -44.4521 -114.704 -98.4307 -140.105c53.9785 -25.4014 92.874 -77.792 98.4307 -140.105c6.74707 -1.98438 11.5098 -8.33496 11.5098 -15.4795
v-57.9473c0 -9.12793 -7.14355 -16.2725 -16.2725 -16.2725h-332.602c-9.12891 0 -16.2725 7.14453 -16.2725 16.2725v57.9473c0 7.14453 4.7627 13.4951 11.5098 15.4795zM406.028 -5.25879h-0.397461v25.4014h-299.659v-25.4014h300.057zM105.972 389.259v-25.4014
h299.659v25.4014h-299.659zM117.482 331.312c8.33496 -69.0605 66.6787 -123.039 138.121 -123.039c71.4414 0 130.579 53.9785 138.518 123.039h-276.639zM256 175.728c-71.4414 0 -130.183 -53.9785 -138.518 -123.039h277.035
c-8.33496 69.0605 -67.0762 123.039 -138.518 123.039z" />
    <glyph glyph-name="uniF12D" unicode="&#xf12d;" 
d="M27.7832 -22.3252v216.31c0 125.817 102.797 228.217 228.613 228.217c125.817 0 228.218 -102.399 228.218 -228.217v-214.325c0 -9.12891 -7.54102 -16.2734 -16.2734 -16.2734h-83.3486c-9.12891 0 -16.2725 7.54102 -16.2725 16.2734v214.723
c0 61.916 -50.4062 112.322 -112.323 112.322c-61.916 0 -112.322 -50.4062 -112.322 -112.322v-216.707c0 -9.12891 -7.54102 -16.2734 -16.2725 -16.2734h-83.7461c-9.12891 0 -16.2725 7.54102 -16.2725 16.2734zM452.068 -4.46484v51.2002h-51.2002v-51.2002h51.2002z
M59.9316 193.984v-115.101h51.5967v115.498c0 79.7764 65.0918 144.471 144.868 144.471c79.7773 0 144.472 -64.6943 144.472 -144.471v-115.498h51.2002v115.101c0 107.957 -88.1113 196.068 -196.068 196.068s-196.068 -88.1113 -196.068 -196.068zM59.9316 46.7354
v-52.7881h51.2002v52.7881h-51.2002z" />
    <glyph glyph-name="uniF151" unicode="&#xf151;" 
d="M469.929 -6.05273c9.12891 0 16.2725 -7.14453 16.2725 -16.2725c0 -9.12891 -7.14355 -16.2734 -16.2725 -16.2734h-428.254c-9.12891 0 -16.2734 7.14453 -16.2734 16.2734v428.254c0 9.12891 7.14453 16.2725 16.2734 16.2725
c9.12793 0 16.2725 -7.14355 16.2725 -16.2725v-411.981h411.981zM215.517 56.6572c0 -9.12891 -7.14453 -16.2725 -16.2734 -16.2725s-16.2725 7.14355 -16.2725 16.2725v234.171c0 9.12891 7.14355 16.2725 16.2725 16.2725s16.2734 -7.14355 16.2734 -16.2725v-234.171z
M136.931 56.6572c0 -9.12891 -7.14453 -16.2725 -16.2734 -16.2725s-16.2725 7.14355 -16.2725 16.2725v234.171c0 9.12891 7.14355 16.2725 16.2725 16.2725s16.2734 -7.14355 16.2734 -16.2725v-234.171zM372.688 56.6572c0 -9.12891 -7.14453 -16.2725 -16.2725 -16.2725
c-9.12891 0 -16.2734 7.14355 -16.2734 16.2725v234.171c0 9.12891 7.14453 16.2725 16.2734 16.2725c9.12793 0 16.2725 -7.14355 16.2725 -16.2725v-234.171zM451.274 56.6572c0 -9.12891 -7.14453 -16.2725 -16.2725 -16.2725
c-9.12891 0 -16.2734 7.14355 -16.2734 16.2725v117.085c0 9.12891 7.14453 16.2734 16.2734 16.2734c9.12793 0 16.2725 -7.14453 16.2725 -16.2734v-117.085zM294.103 56.6572c0 -9.12891 -7.14453 -16.2725 -16.2734 -16.2725
c-9.12793 0 -16.2725 7.14355 -16.2725 16.2725v117.085c0 9.12891 7.14453 16.2734 16.2725 16.2734c9.12891 0 16.2734 -7.14453 16.2734 -16.2734v-117.085z" />
    <glyph glyph-name="uniF10B" unicode="&#xf10b;" 
d="M256 -37.4082c-127.008 0 -229.805 103.194 -229.805 229.805c0 127.008 103.193 229.805 229.805 229.805s229.805 -102.797 229.805 -229.805c0 -126.61 -102.797 -229.805 -229.805 -229.805zM256 390.053c-109.147 0 -197.656 -88.5088 -197.656 -197.656
c0 -108.75 88.5088 -197.655 197.656 -197.655s197.656 88.5088 197.656 197.655c0 109.147 -88.5088 197.656 -197.656 197.656zM245.284 165.408c-9.12891 0 -16.2734 7.14355 -16.2734 16.2725v110.734c0 9.12891 7.14453 16.2734 16.2734 16.2734
c9.12793 0 16.2725 -7.14453 16.2725 -16.2734v-94.4619h60.3281c9.12891 0 16.2734 -7.14355 16.2734 -16.2725s-7.14453 -16.2725 -16.2734 -16.2725h-76.6006z" />
    <glyph glyph-name="uniF153" unicode="&#xf153;" 
d="M256 80.4717c-61.5195 0 -111.132 50.0088 -111.132 111.132c0 61.1221 50.0098 111.132 111.132 111.132s111.132 -50.0098 111.132 -111.132c0 -61.123 -49.6123 -111.132 -111.132 -111.132zM256 270.586c-43.6592 0 -78.9834 -35.3242 -78.9834 -78.9824
c0 -43.6592 35.3242 -78.9834 78.9834 -78.9834s78.9834 35.3242 78.9834 78.9834c0 43.6582 -35.3242 78.9824 -78.9834 78.9824zM272.272 354.332c0 -9.12891 -7.14355 -16.2734 -16.2725 -16.2734s-16.2725 7.14453 -16.2725 16.2734v51.2002
c0 9.12793 7.14355 16.2725 16.2725 16.2725s16.2725 -7.14453 16.2725 -16.2725v-51.2002zM239.728 28.874c0 9.12891 7.14355 16.2734 16.2725 16.2734s16.2725 -7.14453 16.2725 -16.2734v-51.1992c0 -9.12891 -7.14355 -16.2734 -16.2725 -16.2734
s-16.2725 7.14453 -16.2725 16.2734v51.1992zM382.611 295.193c-3.17578 -3.1748 -7.14453 -4.7627 -11.5107 -4.7627c-4.36523 0 -8.33496 1.58789 -11.5098 4.7627c-6.35059 6.35059 -6.35059 16.6699 0 23.0205l36.1182 36.1182
c6.34961 6.35059 16.6689 6.35059 23.0195 0s6.35059 -16.6699 0 -23.0205zM93.2715 28.874c-6.35059 6.35059 -6.35059 16.6699 0 23.0205l36.1172 36.1182c6.35059 6.35059 16.6699 6.35059 23.0205 0s6.35059 -16.6699 0 -23.0205l-36.1182 -36.1182
c-3.1748 -3.1748 -7.54102 -4.7627 -11.5098 -4.7627c-4.36621 0 -8.33496 1.58789 -11.5098 4.7627zM486.201 191.604c0 -9.12891 -7.54102 -16.2734 -16.2725 -16.2734h-51.2002c-9.12891 0 -16.2725 7.14453 -16.2725 16.2734c0 9.12793 7.14355 16.2725 16.2725 16.2725
h51.2002c9.12891 0 16.2725 -7.14453 16.2725 -16.2725zM42.0713 175.33c-8.73145 0 -16.2725 7.14453 -16.2725 16.2734c0 9.12793 7.14355 16.2725 16.2725 16.2725h51.2002c9.12891 0 16.2725 -7.14453 16.2725 -16.2725c0 -9.12891 -7.14355 -16.2734 -16.2725 -16.2734
h-51.2002zM407.219 24.1113c-3.96875 0 -8.33496 1.58789 -11.5098 4.7627l-36.1182 36.1182c-6.35059 6.35059 -6.35059 16.6699 0 23.0205c6.35059 6.34961 16.6699 6.34961 23.0205 0l36.1172 -36.1182c6.35059 -6.35059 6.35059 -16.6699 0 -23.0205
c-3.1748 -3.1748 -7.54102 -4.7627 -11.5098 -4.7627zM152.409 295.193c-3.1748 -3.1748 -7.14355 -4.7627 -11.5098 -4.7627s-8.33496 1.58789 -11.5107 4.7627l-36.1172 36.1182c-6.35059 6.35059 -6.35059 16.6699 0 23.0205s16.6699 6.35059 23.0195 0l36.1182 -36.1182
c6.35059 -6.35059 6.35059 -16.6699 0 -23.0205z" />
    <glyph glyph-name="uniF163" unicode="&#xf163;" 
d="M204.8 422.201c98.8281 0 179.002 -80.1729 179.398 -179.001c0 -43.6592 -15.876 -83.7461 -41.6738 -114.704l139.312 -138.915c6.34961 -6.34961 6.34961 -16.6689 0 -23.0195c-3.17578 -3.17578 -7.54102 -4.7627 -11.5107 -4.7627
c-4.36523 0 -8.33496 1.58691 -11.5098 4.7627l-139.312 139.312c-31.3555 -26.1953 -71.0449 -41.6748 -114.704 -41.6748c-98.8281 0 -179.001 80.1738 -179.001 179.002s80.1729 179.001 179.001 179.001zM204.8 96.3477c80.9678 0 146.853 65.8848 146.853 146.853
s-65.8848 146.853 -146.853 146.853c-80.9668 0 -146.853 -65.8848 -146.853 -146.853s65.8857 -146.853 146.853 -146.853zM310.772 259.473c9.12793 0 16.2725 -7.14355 16.2725 -16.2725s-7.14453 -16.2734 -16.2725 -16.2734h-211.944
c-9.12891 0 -16.2734 7.14453 -16.2734 16.2734s7.14453 16.2725 16.2734 16.2725h211.944z" />
    <glyph glyph-name="uniF131" unicode="&#xf131;" 
d="M431.826 340.44c-71.8389 -11.1133 -124.229 -72.2354 -123.832 -145.662c0 -74.6172 55.9629 -137.327 129.786 -146.059c6.34961 -0.793945 11.9062 -5.16016 13.4941 -11.1133c1.58789 -5.9541 0 -12.7012 -4.7627 -17.0674
c-42.8652 -38.499 -98.0342 -59.9316 -155.188 -59.9316c-127.802 0 -231.393 103.591 -231.393 231.393s103.987 231.393 231.393 231.393c54.375 0 107.162 -19.4482 148.44 -54.376c4.7627 -3.96875 6.74707 -10.7158 5.15918 -16.6689
c-1.58691 -6.35059 -6.74707 -11.1133 -13.0977 -11.9072zM275.051 195.175c0 76.6016 47.2314 142.487 116.292 167.889c-30.1641 17.4639 -64.6943 26.9893 -100.019 26.9893c-109.147 0 -198.45 -89.3027 -198.45 -198.449c0 -109.147 88.9062 -198.45 198.45 -198.45
c38.1025 0 75.0137 11.1133 106.766 31.3555c-72.2354 24.2109 -123.039 92.0801 -123.039 170.666z" />
    <glyph glyph-name="uniF160" unicode="&#xf160;" 
d="M105.575 -22.3252v117.085c-18.2578 28.1797 -28.9736 61.5195 -28.9736 97.2402s10.7158 69.0605 28.9736 97.2402v117.085c0 9.12891 7.14453 16.2734 16.2725 16.2734h268.305c9.12793 0 16.2725 -7.14453 16.2725 -16.2734v-117.085
c18.2578 -28.1797 28.9736 -61.5195 28.9736 -97.2402s-10.7158 -69.0605 -28.9736 -97.2402v-117.085c0 -9.12891 -7.14453 -16.2734 -16.2725 -16.2734h-268.305c-9.12793 0 -16.2725 7.14453 -16.2725 16.2734zM373.879 -6.05273v63.5039
c-31.3545 -27.3857 -72.6328 -44.4531 -117.879 -44.4531s-86.5244 16.6699 -117.879 44.4531v-63.5039h235.758zM138.121 390.053v-63.5039c31.3545 27.3857 72.6328 44.4531 117.879 44.4531s86.5244 -16.6699 117.879 -44.4531v63.5039h-235.758zM256 338.853
c-80.9678 0 -146.853 -65.8848 -146.853 -146.853s65.8848 -146.853 146.853 -146.853s146.853 65.8848 146.853 146.853s-65.8848 146.853 -146.853 146.853zM256 175.728c-9.12891 0 -16.2725 7.14355 -16.2725 16.2725v84.5391
c0 9.12891 7.14355 16.2734 16.2725 16.2734s16.2725 -7.14453 16.2725 -16.2734v-68.2666h42.0713c9.12891 0 16.2734 -7.14355 16.2734 -16.2725s-7.14453 -16.2725 -16.2734 -16.2725h-58.3438z" />
    <glyph glyph-name="uniF143" unicode="&#xf143;" 
d="M256 -38.5986c-127.008 0 -230.599 103.591 -230.599 230.599s103.591 230.599 230.599 230.599s230.599 -103.194 230.599 -230.599s-103.591 -230.599 -230.599 -230.599zM256 390.053c-109.147 0 -198.053 -88.9053 -198.053 -198.053
s88.9053 -198.053 198.053 -198.053s198.053 88.9053 198.053 198.053s-88.9053 198.053 -198.053 198.053zM202.815 76.8994c-6.35059 6.35059 -6.35059 16.6699 0 23.0195l93.2715 93.2715l-93.2715 93.2715c-6.35059 6.35059 -6.35059 16.6699 0 23.0205
s16.6699 6.35059 23.0205 0l104.781 -104.781c3.1748 -3.17578 4.7627 -7.14453 4.7627 -11.5107c0 -4.36523 -1.58789 -8.33496 -4.7627 -11.5098l-104.781 -104.781c-3.17578 -3.17578 -7.54102 -4.7627 -11.5107 -4.7627c-4.36523 0 -8.33496 1.58691 -11.5098 4.7627z
" />
    <glyph glyph-name="uniF10E" unicode="&#xf10e;" 
d="M160.744 205.494l62.3135 -62.3125l176.62 211.547c5.95312 6.74707 16.2725 7.54102 23.0195 1.98438c6.74805 -5.95312 7.54199 -16.2725 1.98535 -23.0195l-187.733 -225.042c-3.17578 -3.57227 -7.54102 -5.55664 -11.9072 -5.9541h-0.793945
c-4.36621 0 -8.33496 1.58789 -11.5098 4.76367l-75.0146 75.0137c-6.34961 6.35059 -6.34961 16.6699 0 23.0195c6.35059 6.35059 16.6699 6.35059 23.0205 0zM377.451 387.274c7.54102 -4.7627 9.92285 -14.6855 5.15918 -22.2266
c-4.7627 -7.54102 -14.6846 -9.92188 -22.2256 -5.15918c-78.5859 48.8184 -179.002 37.3086 -244.887 -28.1797c-76.999 -76.999 -76.999 -202.816 0 -279.814c76.998 -76.998 202.815 -76.998 279.813 0c65.8857 65.8857 77.3955 166.697 27.7832 245.284
c-4.7627 7.54102 -2.38184 17.4629 5.15918 22.2256s17.4639 2.38184 22.2266 -5.15918c57.5508 -91.2871 44.4531 -208.77 -32.1484 -285.371c-44.8496 -44.8496 -103.988 -67.4727 -162.729 -67.4727c-58.7412 0 -117.88 22.623 -162.729 67.4727
c-89.6992 89.6992 -89.6992 236.155 0 325.854c76.2051 76.2051 193.29 89.6992 284.577 32.5459z" />
    <glyph glyph-name="uniF138" unicode="&#xf138;" 
d="M256 -38.2012c-127.008 0 -230.599 103.193 -230.599 230.201c0 107.957 73.4268 200.435 178.604 224.645c8.73242 1.98535 17.4639 -3.57129 19.4482 -12.3037c1.98438 -8.73145 -3.57227 -17.4629 -12.3037 -19.4482
c-90.0957 -21.0352 -153.203 -100.019 -153.203 -192.893c0 -109.147 88.9053 -198.053 198.053 -198.053s198.053 88.9053 198.053 198.053c0 93.2715 -63.5039 172.651 -154.394 192.893c-8.73242 1.98535 -14.2891 10.7168 -12.3037 19.4482
c1.98438 8.73242 10.7158 14.2891 19.4473 12.3037c105.575 -23.8135 179.398 -116.291 179.398 -224.645c0 -127.008 -103.193 -230.201 -230.201 -230.201zM239.728 405.929c0 9.12891 7.14355 16.2725 16.2725 16.2725s16.2725 -7.14355 16.2725 -16.2725v-213.929
c0 -9.12891 -7.14355 -16.2725 -16.2725 -16.2725s-16.2725 7.14355 -16.2725 16.2725v213.929z" />
    <glyph glyph-name="uniF145" unicode="&#xf145;" 
d="M42.0713 214.623c-9.12891 0 -16.2725 7.14453 -16.2725 16.2734v175.429c0 9.12891 7.14355 16.2734 16.2725 16.2734h175.43c9.12891 0 16.2725 -7.14453 16.2725 -16.2734v-175.429c0 -9.12891 -7.14355 -16.2734 -16.2725 -16.2734h-175.43zM57.9473 390.053
v-142.884h142.884v142.884h-142.884zM469.929 214.623h-175.43c-9.12891 0 -16.2725 7.14453 -16.2725 16.2734v175.429c0 9.12891 7.14355 16.2734 16.2725 16.2734h175.43c9.12891 0 16.2725 -7.14453 16.2725 -16.2734v-175.429
c0 -9.12891 -7.14355 -16.2734 -16.2725 -16.2734zM310.772 390.053v-142.884h142.884v142.884h-142.884zM42.0713 120.955v0l428.254 -0.396484c9.12891 0 16.2734 -7.14453 16.2734 -16.2734s-7.14453 -16.2725 -16.2734 -16.2725l-428.254 0.396484
c-9.12891 0 -16.2725 7.14453 -16.2725 16.2734c0 9.12793 7.14355 16.2725 16.2725 16.2725zM41.6748 -37.8047c-8.73242 0 -16.2734 7.14453 -16.2734 16.2725c0 9.12891 7.14453 16.2734 16.2734 16.2734l428.254 -0.397461c9.12891 0 16.2725 -7.14355 16.2725 -16.2725
s-7.14355 -16.2725 -16.2725 -16.2725z" />
    <glyph glyph-name="uniF134" unicode="&#xf134;" 
d="M256 -38.5986c-127.404 0 -230.599 103.194 -230.599 230.599s103.194 230.599 230.599 230.599s230.599 -103.591 230.599 -230.599s-103.194 -230.599 -230.599 -230.599zM256 390.449c-109.147 0 -198.449 -88.9053 -198.449 -198.449
s88.9053 -198.449 198.449 -198.449s198.449 88.9053 198.449 198.449s-89.3018 198.449 -198.449 198.449zM213.532 72.1367c-9.12891 0 -16.2734 7.14355 -16.2734 16.2725v210.754c0 9.12793 7.14453 16.2725 16.2734 16.2725
c9.12793 0 16.2725 -7.14453 16.2725 -16.2725v-210.754c0 -9.12891 -7.14453 -16.2725 -16.2725 -16.2725zM298.468 72.1367c-9.12793 0 -16.2725 7.14355 -16.2725 16.2725v210.754c0 9.12793 7.14453 16.2725 16.2725 16.2725
c9.12891 0 16.2734 -7.14453 16.2734 -16.2725v-210.754c0 -9.12891 -7.14453 -16.2725 -16.2734 -16.2725z" />
    <glyph glyph-name="uniF12C" unicode="&#xf12c;" 
d="M351.652 73.3271c-6.34961 6.35059 -6.34961 16.6699 0 22.2266l79.3799 79.3799h-282.195c-9.12793 0 -16.2725 7.14355 -16.2725 16.2725s7.14453 16.2734 16.2725 16.2734h282.195l-79.3799 79.3799c-6.34961 6.34961 -6.34961 16.6689 0 23.0195
c6.35059 6.35059 16.6699 6.35059 23.0205 0l107.163 -107.163c0.793945 -0.792969 1.58691 -1.58691 1.98438 -2.38086c0.396484 0 0.396484 -0.397461 0.396484 -0.397461c0.397461 -0.792969 0.793945 -1.58691 1.19141 -2.38086
c0.396484 0 0.396484 -0.397461 0.396484 -0.793945c0.396484 -0.396484 0.793945 -1.19043 0.793945 -1.98438c0.396484 -1.19043 0.396484 -1.98438 0.396484 -3.1748c0 -1.19141 0 -1.98535 -0.396484 -3.17578
c-0.397461 -0.793945 -0.397461 -1.19043 -0.793945 -1.98438c-0.396484 0 -0.396484 -0.396484 -0.396484 -0.793945c-0.397461 -0.396484 -0.793945 -1.19043 -1.19141 -1.98438c0 -0.396484 -0.396484 -0.793945 -0.396484 -0.793945
c-0.397461 -0.793945 -1.19043 -1.58789 -1.98438 -2.38086l-107.163 -107.163c-3.1748 -3.1748 -7.14453 -4.7627 -11.5098 -4.7627c-4.36621 0 -8.33496 1.58789 -11.5107 4.7627zM41.6748 -38.2012c-8.73242 0 -15.876 7.14355 -16.2734 16.2725v428.254
c0 9.12891 7.14453 16.2734 16.2734 16.2734h214.325c9.12891 0 16.2725 -7.14453 16.2725 -16.2734v-159.95c0 -9.12891 -7.14355 -16.2725 -16.2725 -16.2725s-16.2725 7.14355 -16.2725 16.2725v143.678h-181.78v-395.709h181.78v143.678
c0 9.12891 7.14355 16.2734 16.2725 16.2734s16.2725 -7.14453 16.2725 -16.2734v-159.95c0 -9.12891 -7.14355 -16.2725 -16.2725 -16.2725h-214.325z" />
    <glyph glyph-name="uniF144" unicode="&#xf144;" 
d="M397.296 26.4932c-9.12891 0 -16.2725 7.54102 -15.876 16.2725v33.3398c0 16.6699 -4.7627 32.5459 -13.4941 46.4375c-4.7627 -14.6855 -11.1133 -29.7676 -19.0518 -44.8496c-3.1748 -5.16016 -8.73145 -8.73242 -14.6846 -8.73242h-61.5195v-26.1953
c0 -9.12793 -7.14453 -16.2725 -16.2734 -16.2725c-9.12793 0 -16.2725 7.14453 -16.2725 16.2725v26.1953h-61.1221c-6.35059 0 -11.9072 3.17578 -14.6855 8.73242c-7.93848 15.4785 -14.6855 30.958 -19.4482 45.6436
c-8.73145 -13.8916 -13.8916 -30.165 -13.8916 -47.2314v-33.3398c0 -9.12793 -7.14355 -16.2725 -16.2725 -16.2725s-16.2734 7.14355 -16.2734 16.2725v33.3398c0 32.9424 13.4951 63.5039 36.9121 86.127c-1.58789 9.92285 -2.38184 19.8447 -2.38184 29.7676
c0 112.72 107.163 221.866 111.529 226.63c3.1748 3.1748 7.14355 4.7627 11.5098 4.7627s8.33496 -1.58789 11.5098 -4.7627c4.7627 -4.36621 112.323 -113.514 112.323 -226.63c0 -9.92285 -1.19141 -20.2422 -2.77832 -30.5615
c23.417 -22.2256 36.5146 -52.7871 36.5146 -85.333v-33.3398c0 -9.12793 -7.14453 -16.2725 -16.2734 -16.2725zM323.87 101.507c15.4785 32.5459 23.417 63.1074 23.417 90.4932c0 78.9834 -64.2979 160.348 -91.2871 190.908
c-26.5918 -30.5605 -90.4932 -112.322 -90.4932 -190.908c0 -9.92285 1.19043 -20.2422 3.17578 -30.958c0.396484 -1.19043 0.792969 -2.38184 0.792969 -3.57227c3.57227 -17.4639 10.3193 -36.5146 19.4482 -55.9629h50.8037v26.1953
c0 9.12891 7.14355 16.2734 16.2725 16.2734s16.2725 -7.14453 16.2725 -16.2734v-26.1953h51.5977zM198.053 238.04c0 32.1494 26.1953 58.7412 58.7412 58.7412s58.7412 -26.1953 58.7412 -58.7412s-26.1953 -58.7412 -58.7412 -58.7412
s-58.7412 26.5928 -58.7412 58.7412zM256.794 263.839c-14.2881 0 -26.1953 -11.5098 -26.1953 -26.1953s11.9072 -26.1953 26.1953 -26.1953c14.6855 0 26.1953 11.5098 26.1953 26.1953s-11.9072 26.1953 -26.1953 26.1953zM182.177 -23.1191
c0 -9.12891 -7.14453 -16.2734 -16.2725 -16.2734c-9.12891 0 -16.2734 7.14453 -16.2734 16.2734v54.375c0 9.12891 7.14453 16.2725 16.2734 16.2725c9.12793 0 16.2725 -7.14355 16.2725 -16.2725v-54.375zM362.369 -23.1191
c0 -9.12891 -7.54102 -16.2734 -16.2734 -16.2734c-9.12793 0 -16.2725 7.14453 -16.2725 16.2734v54.375c0 9.12891 7.14453 16.2725 16.2725 16.2725c9.12891 0 16.2734 -7.14355 16.2734 -16.2725v-54.375z" />
    <glyph glyph-name="uniF136" unicode="&#xf136;" 
d="M256 422.599c101.209 0 183.765 -82.5557 183.367 -184.161c0 -13.0977 -1.19043 -26.1953 -3.96875 -38.8965c0 -0.793945 -0.396484 -1.58789 -0.396484 -2.38086c-20.2422 -88.9062 -161.936 -225.042 -167.889 -230.996
c-3.17578 -2.77832 -7.14453 -4.36523 -11.1133 -4.36523s-7.9375 1.19043 -11.1133 4.36523c-5.95312 5.55664 -148.44 142.09 -168.682 232.98c0 1.19043 -0.397461 1.98438 -0.397461 2.77832c-2.38086 11.9062 -3.57227 24.2109 -3.57227 36.5146
c0 101.605 82.5557 184.161 183.765 184.161zM403.646 205.494c2.38184 10.7168 3.57227 21.8301 3.57227 33.3398c0 83.7461 -68.2666 151.615 -151.615 151.615c-83.3496 0 -151.219 -68.2666 -151.219 -151.615c0 -10.3193 1.19043 -20.6387 3.1748 -30.958
c0.397461 -0.793945 0.397461 -1.19043 0.397461 -1.98438c15.082 -67.4727 114.307 -171.461 148.043 -205.197c33.7363 33.7363 132.564 137.725 147.646 203.609v1.19043zM256 319.008c34.1338 0 61.5195 -27.3857 61.5195 -61.5195
c0 -34.1328 -27.7832 -61.5195 -61.5195 -61.5195s-61.5195 27.7832 -61.5195 61.5195s27.3857 61.5195 61.5195 61.5195zM256 228.118c16.2725 0 29.3701 13.0977 29.3701 29.3701c0 16.2734 -13.0977 29.3711 -29.3701 29.3711s-29.3701 -13.0977 -29.3701 -29.3711
c0 -16.2725 13.0977 -29.3701 29.3701 -29.3701z" />
    <glyph glyph-name="uniF146" unicode="&#xf146;" 
d="M204.8 64.1982c-98.4307 0 -179.001 80.1738 -179.001 179.002c0 98.4307 80.5703 179.001 179.001 179.001c98.8281 0 179.002 -80.1729 179.002 -179.001c0 -43.2617 -15.876 -83.3486 -41.6748 -114.308l138.915 -138.914
c6.35059 -6.35059 6.35059 -16.6699 0 -23.0205c-3.17578 -3.1748 -7.14453 -4.7627 -11.5098 -4.7627c-4.36621 0 -8.33496 1.58789 -11.5107 4.7627l-138.914 138.915c-30.959 -26.1953 -70.6484 -41.6748 -114.308 -41.6748zM204.8 389.656
c-80.5703 0 -146.456 -65.8857 -146.456 -146.456s65.4893 -146.456 146.456 -146.456c80.9678 0 146.456 65.4883 146.456 146.456c0 80.5703 -65.4883 146.456 -146.456 146.456z" />
    <glyph glyph-name="uniF10F" unicode="&#xf10f;" 
d="M121.848 149.929c-8.73145 0 -16.2725 6.74707 -16.2725 15.876s7.14453 16.2725 16.2725 16.2725h53.582c9.12891 0 16.2725 -6.74707 16.2725 -15.876c0 -9.12793 -7.14355 -16.2725 -16.2725 -16.2725h-53.582zM470.325 352.744
c9.12891 0 16.2734 -7.54102 16.2734 -16.2725v-288.546c0 -9.12891 -7.14453 -16.2734 -16.2734 -16.2734h-428.254c-9.12891 0 -16.2725 7.14453 -16.2725 16.2734v180.192c-0.397461 1.19043 -0.397461 2.38086 -0.397461 3.57129c0 1.19141 0 2.38184 0.397461 3.57227
v101.21c0 9.12793 7.14355 16.2725 16.2725 16.2725h428.254zM454.053 63.8018v151.615h-395.709v-151.615h395.709zM454.053 247.565v72.6328h-395.709v-72.6328h395.709z" />
    <glyph glyph-name="uniF120" unicode="&#xf120;" 
d="M256 422.599c126.611 0 229.805 -103.194 230.599 -229.805v-18.2578v-35.7207v-158.362c0 -9.12891 -7.14453 -16.2734 -16.2734 -16.2734h-83.7451c-9.12891 0 -16.2734 7.14453 -16.2734 16.2734v194.083c0 9.12891 7.14453 16.2734 16.2734 16.2734h67.4727v1.98438
c0 109.147 -88.5088 197.655 -197.656 197.655c-109.146 0 -197.655 -88.9053 -197.655 -197.655v-1.98438h67.4727c9.12891 0 16.2725 -7.14453 16.2725 -16.2734v-194.083c0 -9.12891 -7.14355 -16.2734 -16.2725 -16.2734h-83.7461
c-9.12793 0 -16.2725 7.14453 -16.2725 16.2734v158.362v35.7207v18.2578c0 126.61 103.193 229.805 229.805 229.805zM109.941 158.264v0.396484h-51.5977v-19.8447v-142.486h51.5977v161.935zM453.656 138.815v19.4482h-51.2002v-161.538h51.2002v142.09z" />
    <glyph glyph-name="uniF119" unicode="&#xf119;" 
d="M486.995 225.736c1.19141 -5.55664 -0.396484 -11.1133 -3.96875 -15.4785l-87.3174 -91.6846l36.5146 -136.136c1.58691 -5.9541 -0.397461 -12.3047 -5.16016 -16.6699c-3.1748 -2.77832 -7.14453 -4.36621 -11.1133 -4.36621
c-2.38086 0 -4.36621 0.397461 -6.35059 1.19043l-153.203 61.123l-153.203 -61.123c-5.55566 -2.38086 -12.3037 -1.19043 -17.0664 3.17578c-4.7627 3.96875 -6.74707 10.7158 -5.15918 16.6699l36.5146 136.136l-88.1123 96.4473
c-3.96875 4.36523 -5.55566 10.3193 -3.96875 15.876c1.19043 5.55664 5.55664 9.92188 11.1133 11.5098l134.152 40.4834l71.0449 130.977c2.77832 5.55664 8.73145 8.73242 14.6846 8.73242c5.9541 0 11.9072 -3.17578 14.6855 -8.73242l71.4424 -131.373
l133.755 -44.8496c5.15918 -1.98438 9.52539 -6.35059 10.7158 -11.9072zM365.147 134.847l75.4111 79.3799l-115.102 38.499c-4.36523 1.58789 -7.54102 4.36621 -9.52539 7.9375l-59.5352 109.941l-59.5342 -109.941
c-1.98438 -3.96875 -5.55664 -6.74707 -9.92285 -7.9375l-115.498 -34.5303l76.6016 -84.1426c3.96973 -3.96875 5.55664 -9.92285 3.96973 -15.4795l-30.5615 -112.719l128.596 51.2002c1.98438 0.792969 4.36523 1.19043 6.34961 1.19043
c2.38184 0 4.36621 -0.397461 6.35059 -1.19043l128.992 -50.8037l-30.5605 112.72c-1.58789 5.55664 0 11.5098 3.96875 15.876z" />
    <glyph glyph-name="uniF157" unicode="&#xf157;" 
d="M48.8184 169.377c0 108.75 84.1426 198.053 191.306 206.388v13.8916h-38.499c-9.12891 0 -16.2734 7.14355 -16.2734 16.2725s7.14453 16.2725 16.2734 16.2725h107.162c9.12891 0 16.2734 -7.14355 16.2734 -16.2725s-7.14453 -16.2725 -16.2734 -16.2725h-36.1172
v-13.8916c39.6895 -3.17578 75.8076 -17.0674 105.972 -39.293l17.8604 17.8604l-7.54102 7.54102c-6.34961 6.35059 -6.34961 16.6699 0 23.0195c6.35059 6.35059 16.6699 6.35059 23.0205 0l37.7051 -37.7051c6.35059 -6.35059 6.35059 -16.6699 0 -23.0205
c-3.1748 -3.1748 -7.14355 -4.7627 -11.5098 -4.7627s-8.33496 1.58789 -11.5098 4.7627l-7.54102 7.54199l-16.2734 -16.2734c37.3086 -37.3086 60.3291 -89.3018 60.3291 -146.059c0 -114.308 -92.875 -207.182 -207.182 -207.182s-207.182 92.874 -207.182 207.182z
M256 344.013c-96.4463 0 -175.032 -78.1895 -175.032 -175.033c0 -96.4463 78.5859 -175.032 175.032 -175.032s175.032 78.5859 175.032 175.032c0 96.4473 -78.5859 175.033 -175.032 175.033zM256 155.882c-9.12891 0 -16.2725 7.14453 -16.2725 15.876v100.416
c0 9.12891 7.14355 16.2725 16.2725 16.2725s16.2725 -7.14355 16.2725 -16.2725v-83.7461h53.1846c9.12891 0 16.2734 -7.14355 16.2734 -16.2725s-7.14453 -16.2734 -16.2734 -16.2734h-69.457z" />
    <glyph glyph-name="uniF142" unicode="&#xf142;" 
d="M160.348 -33.4385c-3.17578 -3.17578 -7.14453 -4.7627 -11.5107 -4.7627c-4.36523 0 -8.33496 1.58691 -11.5098 4.7627c-6.35059 6.35059 -6.35059 16.6699 0 23.0195l202.419 202.419l-202.419 202.419c-6.35059 6.34961 -6.35059 16.6689 0 23.0195
s16.6699 6.35059 23.0205 0l213.929 -213.929c6.34961 -6.34961 6.34961 -16.6699 0 -23.0195z" />
    <glyph glyph-name="uniF137" unicode="&#xf137;" 
d="M256 -38.9951c-127.404 0 -230.995 103.591 -230.995 230.995s103.591 230.995 230.995 230.995s230.995 -103.591 230.995 -230.995s-103.591 -230.995 -230.995 -230.995zM256 390.449c-109.544 0 -198.449 -89.3018 -198.449 -198.449
s88.9053 -198.449 198.449 -198.449s198.449 88.9053 198.449 198.449s-88.9053 198.449 -198.449 198.449zM210.754 72.9307c-6.35059 2.77832 -10.3193 8.73145 -10.3193 15.082v210.356c0 6.74707 3.96875 12.7002 9.92188 15.082
c6.35059 2.38184 13.0977 1.19043 17.8604 -3.57227l105.179 -105.178c3.1748 -2.77832 4.7627 -7.14453 4.7627 -11.5107c0 -4.36523 -1.58789 -8.33496 -4.7627 -11.5098l-104.781 -105.179c-3.17578 -3.1748 -7.14453 -4.7627 -11.5107 -4.7627
c-2.38086 0 -4.36523 0.397461 -6.34961 1.19141zM232.979 259.076v-131.771l65.8857 65.8848z" />
    <glyph glyph-name="uniF11E" unicode="&#xf11e;" 
d="M325.854 317.817c88.9053 0 160.744 -72.2363 160.347 -161.142c0 -88.5088 -72.2354 -160.347 -160.744 -160.347l-139.708 0.396484c-88.5088 0 -160.348 72.2354 -160.348 160.744s72.2354 160.348 160.744 160.348h52.3906v53.1846
c0 9.12793 7.14453 16.2725 16.2734 16.2725c9.12793 0 16.2725 -7.14453 16.2725 -16.2725v-53.1846h54.7725zM325.457 28.874c70.6484 0 127.802 57.5508 128.199 128.199c0.396484 70.6475 -57.1543 128.198 -127.802 128.198l-139.312 0.396484
c-71.0449 0.397461 -128.596 -57.1533 -128.596 -127.802c-0.396484 -71.0449 57.1533 -128.595 127.802 -128.595zM182.573 172.949c9.12891 0 16.2734 -7.14453 16.2734 -16.2734s-7.14453 -16.2725 -16.2734 -16.2725h-18.6543v-18.6543
c0 -9.12891 -7.14355 -16.2734 -16.2725 -16.2734s-16.2725 7.14453 -16.2725 16.2734v18.6543h-18.6543c-9.12891 0 -16.2734 7.14355 -16.2734 16.2725s7.14453 16.2734 16.2734 16.2734h18.6543v18.6543c0 9.12793 7.14355 16.2725 16.2725 16.2725
s16.2725 -7.14453 16.2725 -16.2725v-18.6543h18.6543zM309.581 183.269c0 17.4635 8.73178 26.1953 26.1953 26.1953s26.1953 -8.73177 26.1953 -26.1953s-8.73178 -26.1953 -26.1953 -26.1953s-26.1953 8.73177 -26.1953 26.1953zM361.972 130.878
c0 17.4635 8.73178 26.1953 26.1953 26.1953c17.4642 0 26.1963 -8.73177 26.1963 -26.1953c0 -17.4635 -8.73209 -26.1953 -26.1963 -26.1953c-17.4635 0 -26.1953 8.73177 -26.1953 26.1953z" />
    <glyph glyph-name="uniF103" unicode="&#xf103;" 
d="M326.251 297.575c0 -68.2666 -55.5654 -124.229 -124.229 -124.229c-68.6631 0 -124.229 55.5664 -124.229 124.229s55.5664 124.229 124.229 124.229c68.6641 0 124.229 -55.9629 124.229 -124.229zM110.735 297.575
c-0.000976562 -50.4062 40.8799 -91.2871 91.2861 -91.2871s91.2871 40.8809 91.2871 91.2871s-40.8809 91.2871 -91.2871 91.2871s-91.2861 -40.8809 -91.2861 -91.2871zM371.895 251.932c34.1338 0 61.916 -27.7832 62.3135 -61.916
c0 -32.5459 -25.0049 -59.1377 -56.3604 -61.916c-17.8604 -50.4062 -55.9629 -90.4932 -105.575 -110.735v-38.8965c0 -9.12793 -7.14355 -16.2725 -16.2725 -16.2725h-107.957c-9.12793 0 -16.2725 7.14453 -16.2725 16.2725v76.999
c0 9.12891 7.14453 16.2725 16.2725 16.2725h107.957c9.12891 0 16.2725 -7.14355 16.2725 -16.2725v-1.98438c33.3398 17.0664 59.1387 45.6436 72.6328 80.5703c-20.6387 10.3193 -34.9268 31.3555 -34.9268 55.9629c0 34.1328 27.7832 61.916 61.916 61.916z
M239.728 30.8594v8.33398h-75.0146v-44.4521h75.0146v31.3545c-0.397461 1.58789 -0.397461 3.17578 0 4.76367zM371.895 160.645c16.2725 0 29.3701 13.0977 29.3701 29.3711c0 16.2725 -13.0977 29.3701 -29.3701 29.3701s-29.3701 -13.0977 -29.3701 -29.3701
c0 -16.2734 13.0977 -29.3711 29.3701 -29.3711z" />
    <glyph glyph-name="uniF102" unicode="&#xf102;" 
d="M199.243 289.637c8.73242 0 16.2734 -7.14355 16.2734 -16.2725v-164.713c0 -9.12891 -7.14453 -16.2734 -16.2734 -16.2734s-16.2725 7.14453 -16.2725 16.2734v164.713c0 9.12891 7.14355 16.2725 16.2725 16.2725zM120.657 289.637
c8.73145 0 16.2734 -7.14355 16.2734 -16.2725v-164.713c0 -9.12891 -7.14453 -16.2734 -16.2734 -16.2734s-16.2725 7.14453 -16.2725 16.2734v164.713c0 9.12891 7.14355 16.2725 16.2725 16.2725zM41.6748 31.2559c-8.73242 0 -16.2734 7.54102 -16.2734 16.2725v288.943
c0 9.12793 7.14453 16.2725 16.2734 16.2725h344.111c9.12891 0 16.2725 -7.14453 16.2725 -16.2725v-68.2666h68.2666c9.12891 0 16.2734 -7.14453 16.2734 -16.2734v-119.069c0 -9.12891 -7.14453 -16.2734 -16.2734 -16.2734h-68.2666v-69.0605
c0 -9.12793 -7.14355 -16.2725 -16.2725 -16.2725h-344.111zM402.059 235.659v-86.9209h51.9941v86.9209h-51.9941zM57.9473 320.198v-256.396h311.566v69.0605v119.069v68.2666h-311.566z" />
    <glyph glyph-name="uniF13E" unicode="&#xf13e;" 
d="M460.006 395.213c35.3242 -34.9277 35.3242 -92.4775 0 -127.802c-7.54102 -7.14453 -16.2725 -13.4951 -25.7979 -17.8604l47.2305 -47.2314c3.17578 -3.1748 4.7627 -7.14453 4.7627 -11.5098c0 -4.36621 -1.58691 -8.33496 -4.7627 -11.5107l-66.2822 -66.2822
c-4.36523 -4.36523 -11.1133 -5.95312 -17.0664 -3.57129c-5.95312 1.98438 -9.92285 7.54102 -10.3193 13.8906c-0.793945 13.8916 -6.74707 26.9893 -16.6699 36.9121c-11.1133 11.1133 -25.7979 17.0664 -41.2773 17.0664s-30.1641 -5.95312 -41.2773 -17.0664
s-17.0664 -25.7988 -17.0664 -41.2773c0 -15.4795 5.95312 -30.1641 17.0664 -41.2773c9.92188 -9.52637 23.0195 -15.4795 36.9111 -16.6699c6.35059 -0.397461 11.5107 -4.36621 13.8916 -10.3193c2.38184 -5.9541 0.793945 -12.7012 -3.57227 -17.0674l-68.2666 -68.2666
c-3.1748 -3.1748 -7.14355 -4.7627 -11.5098 -4.7627s-8.33496 1.58789 -11.5098 4.7627l-214.326 214.326c-6.35059 6.35059 -6.35059 16.2725 0 22.623l214.326 214.325c5.95312 6.35059 16.2725 6.35059 22.623 0l47.2305 -47.2305
c4.36621 9.52539 10.3203 18.2568 17.8613 25.7988c17.0664 17.0664 39.6895 26.5918 63.9004 26.5918s46.834 -9.52539 63.9004 -26.5918zM437.383 290.431c22.623 22.624 22.623 59.5352 0 81.7617c-11.1133 11.1133 -25.7988 17.0664 -41.2773 17.0664
c-15.4795 0 -30.1641 -5.95312 -41.2773 -17.0664c-9.52539 -9.52539 -15.4795 -21.8291 -16.6699 -35.3242c-0.793945 -5.95312 -4.7627 -11.5098 -10.7168 -13.4941c-5.55566 -1.98535 -12.3037 -0.397461 -16.6689 3.96875l-55.1689 55.1689l-191.306 -191.306
l192.099 -191.306l36.9121 36.9121c-9.92285 4.36621 -19.0508 10.7158 -26.9893 18.6543c-17.0664 17.0664 -26.5918 39.6895 -26.5918 63.9004s9.52539 46.834 26.5918 63.9014c17.0664 17.0664 39.6904 26.5918 63.9004 26.5918
c24.2109 0 46.835 -9.52539 63.9014 -26.5918c7.9375 -7.54102 14.2881 -17.0674 18.6543 -26.9893l34.9268 34.9268l-55.1689 55.1689c-4.7627 4.36621 -5.95312 10.7168 -3.96875 16.6699s7.14453 9.92285 13.4941 10.7168
c13.4951 1.19043 25.7988 7.14355 35.3242 16.6689z" />
    <glyph glyph-name="uniF15D" unicode="&#xf15d;" 
d="M256.794 303.926c113.116 0 221.866 -107.56 226.232 -112.322c3.1748 -3.17578 4.7627 -7.14453 4.7627 -11.5107c0 -4.36523 -1.58789 -8.33496 -4.7627 -11.5098c-4.36621 -4.7627 -113.513 -112.322 -226.232 -112.322s-221.47 107.56 -226.232 112.322
c-3.17578 3.1748 -4.7627 7.14453 -4.7627 11.5098c0 4.36621 1.58691 8.33496 4.7627 11.5107c4.36523 4.7627 113.513 112.322 226.232 112.322zM256.794 89.2031c78.9824 0 160.347 64.2979 190.908 91.2871c-30.5615 26.9893 -111.926 91.2861 -190.908 91.2861
c-78.9834 0 -160.348 -64.2969 -190.909 -91.2861c30.5615 -26.9893 111.926 -91.2871 190.909 -91.2871zM198.449 180.49c0 32.1484 26.1953 58.7412 58.7412 58.7412s58.7412 -26.1953 58.7412 -58.7412s-26.1953 -58.7412 -58.7412 -58.7412
s-58.7412 26.5918 -58.7412 58.7412zM282.989 180.49c0 14.2881 -11.9072 25.7979 -26.1953 26.1953c-14.6855 0 -26.1953 -11.5107 -26.1953 -26.1953c0 -14.6855 11.9072 -26.1953 26.1953 -26.1953c14.6855 0 26.1953 11.9062 26.1953 26.1953z" />
    <glyph glyph-name="uniF111" unicode="&#xf111;" 
d="M383.802 149.135l98.8281 -97.6367c6.34961 -6.35059 6.34961 -16.6699 0 -23.0205l-59.1387 -59.1377c-6.35059 -5.9541 -17.0664 -5.9541 -23.0195 0l-103.988 103.987l-32.9424 -98.4307c-1.98438 -6.35059 -7.54102 -10.7168 -14.2881 -11.1133h-1.19043
c-6.35059 0 -11.9072 3.57227 -14.6855 9.12891l-206.388 426.666c-3.17578 6.35059 -1.58789 13.8916 3.1748 18.6543c5.16016 4.7627 12.3037 5.95312 18.6543 2.77832l427.063 -213.135c5.55664 -3.1748 9.12891 -9.12891 8.73242 -15.876
c-0.397461 -6.74707 -4.7627 -12.3037 -11.1133 -14.2881zM411.188 3.07617l36.5146 36.9111l-105.575 105.575c-3.96875 3.96973 -5.55664 9.52539 -4.36523 15.082c1.19043 5.55664 5.15918 9.92285 10.7158 11.5107l76.998 24.6074l-348.874 174.239l168.285 -348.478
l28.5771 85.333c1.58691 5.55664 5.95312 9.52539 11.5098 10.7158c1.19043 0.397461 2.38184 0.397461 3.57227 0.397461c4.36621 0 8.33496 -1.58789 11.5098 -4.7627z" />
    <glyph glyph-name="uniF108" unicode="&#xf108;" 
d="M30.1641 -33.8359c-6.35059 6.35059 -6.35059 16.6699 0 23.0205l202.815 202.815l-202.815 202.815c-6.35059 6.35059 -6.35059 16.6699 0 23.0205c6.35059 6.34961 16.6699 6.34961 23.0205 0l202.815 -202.815l202.815 202.815
c6.35059 6.34961 16.6699 6.34961 23.0205 0c6.34961 -6.35059 6.34961 -16.6699 0 -23.0205l-202.815 -202.815l202.815 -202.815c6.34961 -6.35059 6.34961 -16.6699 0 -23.0205c-3.17578 -3.1748 -7.54102 -4.7627 -11.5107 -4.7627
c-4.36523 0 -8.33496 1.58789 -11.5098 4.7627l-202.815 202.815l-202.815 -202.815c-3.1748 -3.1748 -7.14453 -4.7627 -11.5098 -4.7627c-4.36621 0 -8.33496 1.58789 -11.5107 4.7627z" />
    <glyph glyph-name="uniF150" unicode="&#xf150;" 
d="M418.729 355.522c0.397461 -0.396484 0.397461 -1.19043 0.793945 -1.58789c41.2773 -41.6738 66.6787 -98.8271 66.6787 -161.935c0 -127.008 -103.193 -230.201 -230.201 -230.201s-230.201 103.193 -230.201 230.201c0 63.1074 25.4014 120.657 66.6787 161.935
c0.396484 0.397461 0.396484 0.793945 0.793945 1.19141c0.793945 0.396484 1.19043 0.396484 1.58789 0.792969c41.6738 40.8809 98.4307 66.2822 161.141 66.2822s119.467 -25.0039 161.141 -65.4883c0.397461 -0.396484 1.19141 -0.793945 1.58789 -1.19043z
M256 -6.05273c103.591 0 188.924 80.1738 196.465 181.78h-140.899c-6.74707 -24.2109 -29.3701 -42.0713 -55.9619 -42.0713c-26.5928 0 -48.8193 17.8604 -55.9629 42.0713h-140.899c8.33496 -101.606 93.668 -181.78 197.259 -181.78zM230.201 192
c0 -14.2881 11.5107 -25.7988 25.7988 -25.7988s25.7988 11.5107 25.7988 25.7988s-11.5107 25.7988 -25.7988 25.7988s-25.7988 -11.5107 -25.7988 -25.7988zM311.963 208.272h141.296c-3.1748 42.4688 -20.2422 81.3643 -46.4375 111.926l-30.5605 -30.5615
c-3.17578 -3.1748 -7.54102 -4.7627 -11.5107 -4.7627c-4.36523 0 -8.33398 1.58789 -11.5098 4.7627c-6.35059 6.35059 -6.35059 16.6699 0 23.0205l30.1641 30.5615c-30.5605 25.7979 -69.0605 42.4678 -111.132 46.04v-43.2617
c0 -9.12891 -7.14355 -16.2734 -16.2725 -16.2734s-16.2725 7.14453 -16.2725 16.2734v43.2617c-42.0713 -3.57227 -80.5713 -20.2422 -111.132 -46.04l30.5605 -30.5615c6.35059 -6.35059 6.35059 -16.6699 0 -23.0205c-3.1748 -3.1748 -7.54102 -4.7627 -11.5098 -4.7627
c-4.36621 0 -8.33496 1.58789 -11.5098 4.7627l-30.5615 30.5615c-26.5918 -30.5615 -43.2617 -69.457 -46.834 -111.926h141.296c7.14453 24.2109 29.3711 42.0713 55.9629 42.0713c2.38184 0 5.16016 0 7.54102 -0.396484l44.0557 100.416
c3.57227 8.33398 13.0977 11.9062 21.4326 8.33398c8.33496 -3.57129 11.9072 -13.0977 8.33496 -21.4326l-44.0557 -100.415c8.73145 -7.14453 15.4785 -17.0664 18.6543 -28.5771z" />
    <glyph glyph-name="uniF10D" unicode="&#xf10d;" 
d="M324.664 354.332c89.3018 0 162.331 -72.6328 162.331 -162.332c0 -2.38086 -0.396484 -4.36621 -0.396484 -6.74707v-1.19043c0 -85.334 -69.458 -154.395 -154.394 -154.395h-207.976c-53.9785 0 -98.0342 44.0557 -98.0342 98.0342
c0 55.9629 42.4688 101.606 96.0498 103.987c15.082 0.793945 30.1641 -1.98438 43.6592 -7.54102c14.6846 75.0146 80.1729 130.184 158.76 130.184zM454.053 187.634c0.396484 1.58789 0.396484 2.77832 0.396484 3.96973c0 71.4414 -58.3438 129.786 -129.785 129.786
c-69.8545 0 -126.611 -54.7725 -129.39 -124.627c-0.396484 -5.95312 -3.96875 -11.5098 -9.52539 -13.8916c-5.55664 -2.38086 -11.9072 -1.58691 -16.6699 1.98438c-12.3037 9.12891 -26.5918 14.2891 -42.0713 14.2891h-3.1748
c-35.7217 -1.58789 -65.0918 -33.7363 -65.0918 -71.4424c0 -36.1172 29.3701 -65.4883 65.4883 -65.4883h207.976c66.2812 0 120.657 53.1846 121.848 119.467v3.1748v2.77832z" />
    <glyph glyph-name="uniF105" unicode="&#xf105;" 
d="M160.348 -33.4385c-4.36621 -4.7627 -11.5107 -5.9541 -17.8604 -3.57227c-5.9541 2.77832 -9.92285 8.33496 -9.92285 15.082v427.857c0 9.12891 7.14453 16.2725 16.2725 16.2725h214.326c9.12793 0 16.2725 -7.14355 16.2725 -16.2725v-427.857
c0 -6.74707 -3.96875 -12.7012 -9.92188 -15.082c-2.38184 -0.793945 -4.36621 -1.19043 -6.35059 -1.19043c-4.36621 0 -8.33496 1.58691 -11.5107 4.7627l-95.6523 96.4463zM165.11 389.656h-0.397461v-372.292l79.3799 80.1738
c3.17578 3.1748 7.14453 4.7627 11.5107 4.7627c4.36523 0 8.33398 -1.58789 11.5098 -4.7627l79.3799 -80.1738v372.292h-181.383z" />
    <glyph glyph-name="uniF133" unicode="&#xf133;" 
d="M256 -38.2012c-9.12891 0 -16.6699 7.14355 -16.6699 16.6689v139.709h-146.456c-8.73145 0 -16.2725 7.14453 -16.2725 16.2725v57.9473v213.532c0 8.73145 7.14453 16.2725 16.2725 16.2725h80.5713h1.19043h1.19043h79.3799h1.19043h1.19141h78.9824h1.19141h1.19043
h79.7764c8.73242 0 16.2734 -7.14355 16.2734 -16.2725v-213.532v-58.3438c0 -8.73145 -7.14453 -16.2725 -16.2734 -16.2725h-146.456v-139.709c0 -8.73145 -7.14355 -16.2725 -16.2725 -16.2725zM109.544 389.259v-180.589h292.118v180.589h-48.4219v-57.5498
c0 -8.73242 -7.14453 -16.2734 -16.2725 -16.2734c-8.73242 0 -16.2734 7.14453 -16.2734 16.2734v57.5498h-48.4219v-94.0654c0 -8.73145 -7.14355 -16.2725 -16.2725 -16.2725c-8.73145 0 -16.2725 7.14453 -16.2725 16.2725v94.0654h-49.2158v-57.5498
c0 -8.73242 -7.14453 -16.2734 -16.2734 -16.2734c-8.73145 0 -16.2725 7.14453 -16.2725 16.2734v57.5498h-48.4219zM109.544 150.723h292.912v25.4014h-292.912v-25.4014z" />
    <glyph glyph-name="uniF11C" unicode="&#xf11c;" 
d="M245.284 71.7393c-6.35059 2.77832 -10.3203 8.73242 -9.92285 15.082v56.7568l-68.2666 -68.2666c-3.17578 -3.1748 -7.14453 -4.7627 -11.5098 -4.7627c-2.38184 0 -4.36621 0.396484 -6.35059 1.19043c-5.9541 2.38184 -9.92285 8.33496 -9.92285 15.082v210.357
c0 6.74707 3.96875 12.7002 9.92285 15.082c6.35059 2.38086 13.0977 1.19043 17.8604 -3.57227l67.8691 -68.2666v56.7568c0 6.74707 3.96973 12.7002 9.92285 15.082c6.35059 2.38086 13.0977 1.19043 17.8604 -3.57227l105.575 -105.179
c3.17578 -3.1748 4.7627 -7.14355 4.7627 -11.5098s-1.58691 -8.33496 -4.7627 -11.5098l-105.178 -105.179c-3.17578 -3.1748 -7.14453 -4.7627 -11.5107 -4.7627c-2.38086 0 -4.36523 0.396484 -6.34961 1.19043zM267.907 182.871v-56.7568l65.4883 65.8857
l-65.4883 65.8848v-56.7559v-18.2578zM171.857 126.114l63.5039 63.5039v4.7627l-63.5039 63.5039v-131.771z" />
    <glyph glyph-name="uniF152" unicode="&#xf152;" 
d="M483.026 268.998c1.19043 -2.38086 1.98438 -4.7627 2.38184 -7.9375c1.19043 -5.16016 1.98438 -10.3193 1.98438 -15.082c0 -27.3857 -16.2734 -51.2002 -39.6904 -62.71v-205.991c0 -9.12891 -7.14355 -16.2725 -16.2725 -16.2725h-344.112
c-9.12793 0 -16.2725 7.14355 -16.2725 16.2725v203.213c-26.9893 9.52539 -46.04 35.3242 -46.04 65.4883c0 5.55664 0.793945 10.7158 2.38086 16.6699c0 1.58691 0.397461 2.77832 0.793945 3.96875l1.58789 4.7627c0.396484 0.793945 0.396484 1.58789 0.793945 2.38184
l49.6123 138.12c2.38086 6.35059 8.73145 10.7168 15.4785 10.7168h320.695c7.14355 0 13.0977 -4.36621 15.4785 -10.7168l50.0098 -138.914c0 -0.397461 0.396484 -1.19141 0.396484 -1.19141zM414.76 -6.44922v182.573c-0.793945 0 -1.98438 0.396484 -2.77832 0.396484
c-1.19043 0 -2.77832 0.397461 -3.96875 0.397461c-0.793945 0 -1.98438 0.396484 -2.77832 0.396484c-1.98438 0.397461 -3.57227 0.793945 -5.16016 1.19141c-0.396484 0 -0.793945 0.396484 -1.19043 0.396484c-14.2881 3.57227 -26.5928 11.5098 -35.7207 22.623
c-12.7012 -15.082 -32.1494 -25.0049 -53.582 -25.0049s-40.8799 9.52637 -53.5811 25.0049c-12.7012 -15.082 -32.1484 -25.0049 -53.5811 -25.0049s-40.8809 9.52637 -53.582 25.0049c-10.7158 -12.7002 -25.4014 -21.4326 -42.4678 -24.2109
c-0.793945 0 -1.98438 -0.396484 -2.77832 -0.396484v-183.367h311.169zM427.461 210.258c15.4785 4.7627 26.9883 19.0508 26.9883 35.7207c0 3.1748 -0.396484 6.35059 -1.58691 10.3193c0 0.396484 -0.397461 1.19043 -0.397461 1.58789l-0.793945 2.38086
c0 0.397461 -0.396484 1.19043 -0.396484 1.19043l-46.4375 128.992h-297.674l-47.6279 -132.167c0 -0.396484 -0.397461 -1.19043 -0.397461 -1.58789c-1.19043 -3.96875 -1.58691 -7.14355 -1.58691 -10.3193c0 -18.6543 13.4941 -33.7363 30.958 -36.9111h1.19043
c0.793945 -0.397461 1.19043 -0.397461 1.58789 -0.397461c1.19043 0 2.77832 -0.396484 3.96875 -0.396484c2.38184 0 4.7627 0.396484 7.14453 0.793945c1.98438 0.396484 3.57129 0.793945 5.55664 1.58691c0.396484 0.397461 0.396484 0.397461 0.792969 0.397461
c12.7012 5.15918 22.2266 17.0664 23.417 31.752v0.396484c0.397461 0.793945 0.397461 1.58789 0.397461 2.38184c0 9.12891 7.14453 16.2725 16.2725 16.2725c9.12891 0 16.2734 -7.14355 16.2734 -16.2725v-1.98438v-0.793945
c1.19043 -14.2881 10.7158 -26.5928 23.417 -31.752c0.396484 -0.397461 0.396484 -0.397461 0.793945 -0.397461c1.98438 -0.396484 3.96875 -1.19043 5.95312 -1.58691c2.38184 -0.397461 4.7627 -0.793945 7.14453 -0.793945c2.38086 0 4.7627 0.396484 7.14355 0.793945
c1.98438 0.396484 3.96973 0.793945 5.9541 1.58691c0.396484 0.397461 0.396484 0.397461 0.793945 0.397461c12.7002 5.15918 22.2256 17.0664 23.417 31.752v0.396484c0.396484 0.793945 0.396484 1.58789 0.396484 2.38184c0 9.12891 7.14453 16.2725 16.2725 16.2725
c9.12891 0 16.2734 -7.14355 16.2734 -16.2725c0 -0.793945 0.396484 -1.19043 0.396484 -1.98438v-0.793945c1.19141 -14.2881 10.7168 -26.5928 23.417 -31.752c0.397461 -0.397461 0.397461 -0.397461 0.793945 -0.397461
c1.58789 -0.396484 3.57227 -1.19043 5.55664 -1.58691c2.38184 -0.397461 4.7627 -0.793945 7.14453 -0.793945c2.38086 0 4.7627 0.396484 7.14355 0.793945c1.98535 0.396484 3.96973 0.793945 5.9541 1.58691c0.396484 0.397461 0.396484 0.397461 0.793945 0.397461
c12.7002 5.15918 22.2256 17.0664 23.417 31.752v0.396484c0.396484 0.793945 0.396484 1.58789 0.396484 2.38184c0 9.12891 7.14453 16.2725 16.2734 16.2725c9.12793 0 16.2725 -7.14355 16.2725 -16.2725v-1.98438v-0.793945
c1.19043 -14.2881 10.7158 -26.5928 23.417 -31.752c0.396484 -0.397461 0.396484 -0.397461 0.793945 -0.397461c1.58789 -0.396484 3.57227 -1.19043 5.55664 -1.58691c2.38086 -0.397461 4.7627 -0.793945 7.14355 -0.793945c1.58789 0 3.57227 0 5.16016 0.396484
c1.58789 0.397461 3.1748 0.793945 5.16016 1.19141c-0.397461 0 -0.397461 0 0 0z" />
    <glyph glyph-name="uniF15C" unicode="&#xf15c;" 
d="M383.404 341.631c9.12891 0 16.2734 -7.14355 16.6699 -16.2725v-76.6016l59.1387 59.1377c4.36523 4.7627 11.5098 5.95312 17.4629 3.57227c5.9541 -2.77832 9.92285 -8.73145 9.92285 -15.082v-208.372c0 -6.74707 -3.96875 -12.7012 -9.92285 -15.082
c-1.98438 -0.793945 -4.36523 -1.19141 -6.35059 -1.19141c-4.36523 0 -8.33496 1.58789 -11.5098 4.7627l-59.1377 59.1387v-76.999c0 -9.12793 -7.54102 -16.2725 -16.2734 -16.2725h-341.729c-9.12891 0 -16.2734 7.54102 -16.2734 16.2725v266.717
c0 9.12793 7.54102 16.2725 16.2734 16.2725h341.729zM367.132 209.464v100.019h-309.581v-234.965h309.581v100.019v34.9277zM454.053 257.092l-54.375 -54.7725v-21.4326l54.375 -54.375v130.58z" />
    <glyph glyph-name="uniF14C" unicode="&#xf14c;" 
d="M42.4678 53.085c-9.12793 0 -16.2725 7.14453 -16.2725 16.6699v63.9014v197.259v75.0137c0 9.12891 7.14453 16.2725 16.2725 16.2725c9.12891 0 16.2734 -7.14355 16.2734 -16.2725v-59.1377h411.188c4.7627 0 9.52539 -2.38184 12.7012 -6.35059
c3.1748 -3.96875 3.96875 -9.12891 2.77832 -13.8916l-53.9785 -197.259c-1.98438 -7.14453 -8.33496 -11.9072 -15.4795 -11.9072h-357.209v-31.752h314.344c9.12891 0 16.2734 -7.14453 16.2734 -16.2725c0 -9.12891 -7.14453 -16.2734 -16.2734 -16.2734h-20.6387
c5.16016 -9.12793 7.93848 -19.0508 7.93848 -29.7676c0 -16.6689 -6.35059 -32.1484 -17.8604 -43.6582c-11.9072 -11.5107 -26.9893 -17.8604 -43.6592 -17.8604s-32.1484 6.34961 -43.6592 17.8604c-19.8447 19.8447 -23.0195 50.0088 -9.92188 73.4258h-76.6016
c5.15918 -9.12793 7.9375 -19.0508 7.9375 -29.7676c0 -16.6689 -6.35059 -32.1484 -17.8604 -43.6582c-11.9072 -11.5107 -26.9893 -17.8604 -43.6592 -17.8604s-32.1484 6.34961 -43.6592 17.8604c-19.8447 19.8447 -23.0195 50.0088 -9.92188 73.4258h-19.0518z
M277.829 43.957c-11.5098 -11.5107 -11.5098 -29.7676 0 -41.2783c11.1133 -11.1133 30.165 -11.1133 41.2783 0c5.55566 5.55664 8.73145 12.7012 8.73145 20.6387c0 7.93848 -3.1748 15.083 -8.73145 20.6396c-5.55664 5.55566 -12.7012 8.73145 -20.6396 8.73145
c-7.9375 0 -15.082 -3.1748 -20.6387 -8.73145zM94.4619 43.957c-11.5098 -11.5107 -11.5098 -29.7676 0 -41.2783c11.1133 -11.1123 30.1641 -11.1123 41.2773 0c5.55664 5.55664 8.73242 12.7012 8.73242 20.6396c0 7.9375 -3.17578 15.082 -8.73242 20.6387
s-12.7002 8.73145 -20.6387 8.73145c-7.9375 0 -15.082 -3.1748 -20.6387 -8.73145zM58.7412 314.642v-165.109h344.509l45.2461 165.109h-389.755z" />
    <glyph glyph-name="uniF15E" unicode="&#xf15e;" 
d="M271.082 108.254c-60.7256 0 -109.941 49.6123 -109.941 110.338v10.7168v82.9521c0 60.7256 49.2158 109.94 109.941 109.94s109.941 -49.2148 109.941 -109.94v-82.9521v-10.7168c0 -60.7256 -49.2158 -110.338 -109.941 -110.338zM193.687 312.261v-82.9521
c0 -42.8652 34.9277 -77.792 77.793 -77.792c42.8643 0 77.792 34.9268 77.792 77.792v82.9521c0 42.8652 -34.9277 77.792 -77.792 77.792c-42.8652 0 -77.793 -34.9268 -77.793 -77.792zM428.651 218.592c0 -81.3643 -61.916 -148.439 -141.296 -156.774v-67.8701h84.1426
c9.12793 0 16.2725 -7.14453 16.2725 -16.2725c0 -9.12891 -7.14453 -16.2734 -16.2725 -16.2734h-207.579c-9.12793 0 -16.2725 7.14453 -16.2725 16.2734c0 9.12793 7.14453 16.2725 16.2725 16.2725h90.8906v67.8701c-79.3799 8.33496 -141.296 75.4102 -141.296 156.774
c0 9.12891 7.14355 16.2734 16.2725 16.2734s16.2725 -7.14453 16.2725 -16.2734c0 -69.0596 55.9629 -125.022 125.023 -125.022s125.023 55.9629 125.023 125.022c0 9.12891 7.14453 16.2734 16.2725 16.2734c9.12891 0 16.2734 -7.14453 16.2734 -16.2734z" />
    <glyph glyph-name="uniF117" unicode="&#xf117;" 
d="M25.7988 7.83887c0 0.793945 0 1.19043 -0.397461 1.58789v0.792969v363.561c0 9.12793 7.14453 16.2725 16.2734 16.2725h427.063c9.12793 0 16.2725 -7.14453 16.2725 -16.2725v-363.561v-0.792969v-1.58789c0 -0.793945 -0.396484 -1.19043 -0.396484 -1.58789
c0 -0.396484 -0.397461 -1.19043 -0.397461 -1.58789c0 -0.792969 0 -1.19043 -0.396484 -1.58691c-0.397461 -0.793945 -0.397461 -1.19141 -0.793945 -1.58789c-0.397461 -0.396484 -0.397461 -0.793945 -0.793945 -1.19043
c0 -0.397461 -0.396484 -0.793945 -0.793945 -1.19043c-0.396484 -0.397461 -0.793945 -0.793945 -1.19043 -1.19141l-0.396484 -0.396484c0 -0.397461 -0.397461 -0.397461 -0.397461 -0.397461c-1.19043 -0.792969 -2.77832 -1.58691 -4.36621 -2.38086
c-0.396484 -0.397461 -0.396484 -0.397461 -0.792969 -0.397461c-1.58789 -0.396484 -3.17578 -0.792969 -4.7627 -0.792969v0h-428.255v0c-1.58789 0 -3.1748 0.396484 -4.7627 0.792969c-0.396484 0.397461 -0.396484 0.397461 -0.793945 0.397461
c-1.58691 0.396484 -3.1748 1.19043 -4.36523 2.38086c0 0.397461 -0.397461 0.397461 -0.397461 0.397461l-0.396484 0.396484l-1.19141 1.19141c0 0.396484 -0.396484 0.792969 -0.792969 1.19043c-0.397461 0.396484 -0.397461 0.793945 -0.793945 1.19043
c-0.397461 0.793945 -0.397461 1.19043 -0.793945 1.58789c0 0.793945 -0.397461 1.19043 -0.397461 1.58691c0 0.397461 -0.396484 1.19141 -0.396484 1.58789c-0.396484 0.793945 -0.396484 1.19043 -0.396484 1.58789zM76.6016 26.4932h358.797l-120.261 143.678
l-50.0088 -34.9277c-2.77832 -1.98438 -5.9541 -2.77832 -9.12891 -2.77832c-3.17578 0 -6.35059 0.793945 -9.12891 2.77832l-50.0088 34.9277zM454.053 55.0693h-0.397461v211.944l-111.925 -78.1885zM57.9473 357.507v-51.2002l198.053 -137.724l197.655 137.724v51.2002
h-395.708zM57.9473 267.014v-211.944l111.926 133.756z" />
    <glyph glyph-name="uniF15F" unicode="&#xf15f;" 
d="M41.6748 68.5645c-8.73242 0 -16.2734 7.54102 -16.2734 16.2725v214.326c0 9.12793 7.14453 16.2725 16.2734 16.2725h107.162c9.12891 0 16.2734 -7.14453 16.2734 -16.2725v-5.55664l188.924 126.214c5.15918 3.1748 11.5098 3.57227 16.6699 0.793945
c5.55664 -2.77832 8.73145 -8.33496 8.73145 -14.2891v-428.254c0 -5.95312 -3.57227 -11.5098 -8.73145 -14.2881c-2.38184 -1.19141 -4.7627 -1.98438 -7.54102 -1.98438c-3.17578 0 -6.35059 0.792969 -9.12891 2.77832l-188.924 125.816v-5.55664
c0 -9.12793 -7.14453 -16.2725 -16.2734 -16.2725h-107.162zM165.11 254.71v-125.42l181.779 -121.451v367.926zM57.9473 282.89v-181.779h74.6172v19.4482v142.883v19.4482h-74.6172zM470.325 315.436c8.73242 0 16.2734 -7.54102 16.2734 -16.2725v-214.326
c0 -9.12793 -7.14453 -16.2725 -16.2734 -16.2725c-9.12793 0 -16.2725 7.14453 -16.2725 16.2725v214.326c0 9.12793 7.14453 16.2725 16.2725 16.2725z" />
    <glyph glyph-name="uniF12B" unicode="&#xf12b;" 
d="M142.487 239.231c12.3037 12.3037 28.5762 19.0508 46.04 19.0508c0.793945 0 1.19043 -0.396484 1.98438 -0.396484c-0.396484 0.792969 -0.396484 1.19043 -0.396484 1.98438c0 17.4629 6.74707 33.7363 19.0508 46.04l98.4307 98.0342
c12.3037 12.3037 28.1797 19.0508 45.6436 19.0508s33.7363 -6.74707 46.04 -18.6543l68.6641 -68.6631c25.4014 -25.4014 25.4014 -66.2822 0 -91.6836l-98.4307 -98.4316c-12.3047 -12.3037 -28.5771 -19.0508 -46.041 -19.0508
c-0.793945 0 -1.19043 0.396484 -1.98438 0.396484c0.397461 -0.792969 0.397461 -1.19043 0.397461 -1.98438c0 -17.4629 -6.74805 -33.7363 -19.0518 -46.04l-97.6367 -98.4307c-12.3047 -12.3047 -28.5771 -19.0518 -46.041 -19.0518
c-17.4629 0 -33.7363 6.74707 -46.04 19.0518l-68.6631 68.6631c-25.4023 25.4014 -25.4023 66.2822 0 91.6836zM234.171 280.905c-5.55664 -5.55664 -8.73242 -12.7002 -8.73242 -20.6387c0 -7.9375 3.17578 -15.4795 8.73242 -21.0352l21.8291 -21.8301l19.8447 19.8447
c6.74805 6.74805 18.2578 6.74805 25.0049 0c6.74707 -6.74707 6.74707 -18.2568 0 -25.0039l-19.8447 -19.8457l21.8291 -21.8291c11.1133 -11.1133 30.5615 -11.1133 41.6748 0l98.8281 98.4307c11.5098 11.5107 11.5098 30.165 0 41.6748l-68.6641 68.6631
c-5.55664 5.55664 -13.0977 8.73242 -21.0352 8.73242c-7.93848 0 -15.4795 -3.17578 -21.0361 -8.73242zM209.166 214.227c-5.55664 5.55664 -13.0977 8.73145 -20.6387 8.73145c-7.93848 0 -15.4795 -3.1748 -21.0361 -8.73145l-98.4307 -98.4316
c-11.5098 -11.5098 -11.5098 -30.1641 0 -41.6738l68.2666 -69.0605c11.1133 -11.1133 30.5615 -11.1133 41.6748 0l98.4307 98.4307c5.55664 5.55664 8.73145 13.0977 8.73145 21.0361c0 7.9375 -3.1748 15.4785 -8.73145 21.0352l-21.8291 21.8301l-19.8457 -19.8457
c-3.1748 -3.57129 -7.9375 -5.15918 -12.3037 -5.15918c-4.36523 0 -8.73145 1.58789 -12.3037 5.15918c-6.74707 6.74805 -6.74707 18.2578 0 25.0049l19.8447 19.8447z" />
    <glyph glyph-name="uniF149" unicode="&#xf149;" 
d="M470.325 209.066c8.73242 0 15.876 -7.54102 16.2734 -16.2725c0 -9.12891 -7.14453 -16.2734 -16.2734 -16.2734h-82.1582c-6.74707 -24.6074 -29.3701 -42.8643 -56.3594 -42.8643s-49.6123 18.2568 -56.3594 42.8643h-233.773
c-9.12891 0 -16.2734 7.14453 -16.2734 16.2734s7.14453 16.2725 16.2734 16.2725h234.17c7.14453 24.2109 29.7676 41.6748 55.9629 41.6748s48.8184 -17.8604 55.9629 -41.6748h82.5547zM331.808 166.201c14.2881 0 25.7988 11.5107 25.4014 25.7988
c0 14.2881 -11.5098 25.7988 -25.7979 25.7988c-14.2891 0 -25.7988 -11.5107 -25.7988 -25.7988s11.9072 -25.7988 26.1953 -25.7988z" />
    <glyph glyph-name="uniF148" unicode="&#xf148;" 
d="M41.6748 240.024h29.3701c4.36621 17.4639 11.1133 33.7373 20.2422 48.8193l-20.6387 20.6387c-6.35059 6.35059 -6.35059 16.6699 0 23.0195l44.8496 45.2471c6.34961 6.35059 16.6689 6.35059 23.0195 0l21.0361 -21.0361
c15.082 8.73242 31.3545 15.4795 48.4219 19.8457v29.7666c0 9.12891 7.14355 16.2734 16.2725 16.2734h63.5039c9.12891 0 16.2725 -7.14453 16.2725 -16.2734v-29.7666c17.0674 -4.76367 33.3398 -11.5107 48.4219 -20.2422l21.0361 21.0352
c6.35059 6.35059 16.6699 6.35059 23.0195 0l45.2471 -44.4521c6.35059 -6.35059 6.35059 -16.6699 0 -23.0205l-21.4326 -21.4326c8.73145 -15.082 15.4785 -30.958 19.8447 -48.0244h30.1641c9.12891 0 16.2734 -7.14453 16.2734 -16.2734v-63.5039
c0 -9.12793 -7.14453 -16.2725 -16.2734 -16.2725h-30.1641c-4.36621 -17.0664 -11.1133 -32.9424 -19.8447 -48.0244l21.4326 -21.4326c6.35059 -6.35059 6.35059 -16.6699 0 -23.0205l-44.8496 -44.8496c-6.35059 -6.35059 -16.6699 -6.35059 -23.0205 0l-21.4326 21.4326
c-15.082 -8.73145 -30.958 -15.4795 -48.0244 -19.8447v-30.165c0 -9.12793 -7.14453 -16.2725 -16.2734 -16.2725h-63.5039c-9.12793 0 -16.2725 7.14453 -16.2725 16.2725v29.7676c-17.0664 4.36621 -33.3398 11.1133 -48.4219 19.8457l-21.0352 -21.0361
c-6.35059 -6.35059 -16.6699 -6.35059 -23.0205 0l-44.8496 44.8496c-6.35059 6.35059 -6.35059 16.6699 0 23.0205l20.6387 20.6387c-9.12891 15.082 -15.876 31.3545 -20.2422 48.4219h-29.7666c-9.12891 0 -16.2734 7.14355 -16.2734 16.2725v63.5039
c0 9.12891 7.14453 16.2725 16.2734 16.2725zM100.415 220.974c-1.58691 -7.9375 -8.33398 -13.4941 -15.876 -13.8916h-26.1953v-30.958h26.1953c7.93848 0 14.2891 -5.55664 15.876 -13.0977c4.36621 -21.8291 12.7012 -42.4678 25.4023 -60.7256
c4.36523 -6.35059 3.57129 -15.082 -1.98438 -20.6387l-18.6543 -18.6543l21.8291 -20.6387l18.6543 18.6543c5.55664 5.55664 14.2881 6.35059 20.6387 1.98438c18.2578 -12.7012 38.499 -21.0361 60.7256 -25.0049c7.9375 -1.19043 13.4941 -7.9375 13.4941 -15.876
v-26.5918h30.959v26.5918c0 7.54102 5.55664 14.2891 13.0977 15.876c21.8291 3.96875 42.0713 12.3037 60.3281 25.0049c6.35059 4.36621 15.082 3.57227 20.6387 -1.98438l19.0518 -19.0518l21.8291 21.8301l-19.0508 19.0508
c-5.55664 5.55664 -6.35059 14.2881 -1.98535 20.6387c12.7012 18.2578 21.0361 38.499 25.0049 60.3291c1.19141 7.54102 7.93848 13.0977 15.876 13.0977h26.9893v30.958h-26.9893c-7.54102 0 -14.2881 5.95312 -15.876 13.4941
c-4.36523 21.8301 -12.7002 42.0713 -25.0049 60.3291c-4.36523 6.35059 -3.57129 15.082 1.98535 20.6387l19.0508 19.0508l-21.8291 21.8301l-19.0518 -19.0508c-5.55664 -5.55664 -14.2881 -6.35059 -20.6387 -1.98535
c-18.2568 12.3047 -38.499 21.0361 -60.3281 25.0049c-7.54102 1.19043 -13.0977 7.93848 -13.0977 15.876v26.5928h-30.959v-26.5928c0 -7.9375 -5.95312 -14.2881 -13.4941 -15.876c-21.8291 -3.96875 -42.4678 -12.3037 -60.7256 -25.0049
c-6.35059 -4.36523 -15.082 -3.57129 -20.6387 1.98535l-18.6543 18.6533l-21.8291 -21.8291l18.2568 -18.6543c5.55664 -5.55664 6.35059 -14.2881 1.98438 -20.6387c-12.3037 -18.2578 -21.0352 -38.499 -25.0049 -60.7256zM255.604 78.0898
c-61.5195 0 -111.529 50.0098 -111.529 111.528c0 61.5195 50.0098 111.529 111.529 111.529c61.5186 0 111.528 -50.0098 111.528 -111.529c0 -61.5186 -50.0098 -111.528 -111.528 -111.528zM255.604 268.602c-43.6592 0 -78.9834 -35.3242 -78.9834 -78.9834
c0 -43.6582 35.3242 -78.9824 78.9834 -78.9824c43.6582 0 78.9824 35.3242 78.9824 78.9824c0 43.6592 -35.3242 78.9834 -78.9824 78.9834z" />
    <glyph glyph-name="uniF125" unicode="&#xf125;" 
d="M256 -38.5986c-127.008 0 -230.599 103.194 -230.599 230.202s103.591 230.201 230.599 230.201s230.201 -103.193 230.201 -230.201s-103.193 -230.202 -230.201 -230.202zM256 390.053c-109.147 0 -198.053 -88.9053 -198.053 -198.053
s88.9053 -198.053 198.053 -198.053s198.053 88.9053 198.053 198.053s-88.9053 198.053 -198.053 198.053zM217.501 90.3936h37.3086v127.008h-37.3086c-9.12891 0 -16.2734 7.14453 -16.2734 16.2734c0 9.12793 7.14453 16.2725 16.2734 16.2725h53.1846
c9.12793 0 16.2725 -7.14453 16.2725 -16.2725v-143.281h37.3086c9.12891 0 16.2725 -7.14355 16.2725 -16.2725s-7.14355 -16.2734 -16.2725 -16.2734h-106.766c-9.12891 0 -16.2734 7.14453 -16.2734 16.2734s7.14453 16.2725 16.2734 16.2725zM222.66 303.132
c0 17.4635 8.73177 26.1953 26.1953 26.1953c17.4635 0 26.1953 -8.73178 26.1953 -26.1953s-8.73178 -26.1953 -26.1953 -26.1953c-17.4635 0 -26.1953 8.73178 -26.1953 26.1953z" />
    <glyph glyph-name="uniF156" unicode="&#xf156;" 
d="M42.4678 175.728c-8.73145 0 -16.2725 7.14355 -16.2725 16.2725s7.14453 16.2725 16.2725 16.2725h35.7217c7.54102 85.334 75.8076 153.997 161.538 161.538v35.7217c0 9.12793 7.54102 16.2725 16.2725 16.2725c9.12891 0 16.2725 -7.54102 16.2725 -16.2725v-35.7217
c85.334 -7.54102 153.997 -75.8076 161.538 -161.538h35.7217c9.12793 0 16.2725 -7.54102 16.2725 -16.2725c0 -9.12891 -7.54102 -16.2725 -16.2725 -16.2725h-35.7217c-7.54102 -85.334 -75.8076 -153.997 -161.538 -161.538v-35.7217
c0 -9.12793 -7.54102 -16.2725 -16.2725 -16.2725c-9.12891 0 -16.2725 7.54102 -16.2725 16.2725v35.7217c-85.334 7.54102 -153.997 75.8076 -161.538 161.538h-35.7217zM176.224 208.272c8.73145 0 16.2725 -7.54102 16.2725 -16.2725
c0 -9.12891 -7.54102 -16.2725 -16.2725 -16.2725h-65.4883c7.14355 -67.4736 61.1221 -121.451 128.992 -128.992v65.4883c0 9.12793 7.54102 16.2725 16.2725 16.2725c9.12891 0 16.2725 -7.54102 16.2725 -16.2725v-65.4883
c67.4736 7.14355 121.451 61.1221 128.992 128.992h-65.4883c-9.12793 0 -16.2725 7.54102 -16.2725 16.2725c0 9.12891 7.54102 16.2725 16.2725 16.2725h65.4883c-7.14355 67.4736 -61.1221 121.451 -128.992 128.993v-65.4893
c0 -9.12793 -7.54102 -16.2725 -16.2725 -16.2725c-9.12891 0 -16.2725 7.54102 -16.2725 16.2725v65.4893c-67.4736 -7.14453 -121.451 -61.123 -128.992 -128.993h65.4883z" />
    <glyph glyph-name="uniF110" unicode="&#xf110;" 
d="M196.862 125.718l-159.554 50.4062c-6.35059 1.98438 -10.7168 7.54102 -11.1133 14.2881c-0.793945 6.74805 2.77832 13.0977 8.73145 15.876l427.461 213.929c6.35059 3.17578 13.8916 1.98438 18.6543 -2.77832s6.35059 -12.3037 3.1748 -18.6543l-206.388 -427.46
c-2.77832 -5.55664 -8.33496 -9.12891 -14.6846 -9.12891h-1.19141c-6.34961 0.396484 -12.3037 4.7627 -14.2881 11.1133zM434.604 370.208l-349.668 -175.033l129.786 -41.2773c4.7627 -1.58691 8.73145 -5.55664 10.3193 -10.3193l40.8809 -122.245z" />
    <glyph glyph-name="uniF11F" unicode="&#xf11f;" 
d="M41.6748 324.167c-8.73242 0 -16.2734 7.14453 -16.2734 16.2734s7.14453 16.2725 16.2734 16.2725h32.5449h92.0811v49.6123c0 9.12891 7.14453 16.2734 16.2725 16.2734h146.854c9.12793 0 16.2725 -7.14453 16.2725 -16.2734v-49.6123h92.0811h32.5449
c9.12891 0 16.2734 -7.14355 16.2734 -16.2725s-7.14453 -16.2734 -16.2734 -16.2734h-17.8604l-41.6738 -348.08c-1.19141 -8.33496 -7.93848 -14.2881 -16.2734 -14.2881h-277.035c-8.33496 0 -15.4795 5.95312 -16.2734 14.2881l-41.6738 348.08h-17.8604z
M198.847 390.053v-33.3398h114.307v33.3398h-114.307zM419.522 324.167h-327.045l39.293 -330.22h248.459zM202.021 43.5596c-9.12891 0 -16.2725 7.14453 -16.2725 16.2734v194.877c0 9.12891 7.14355 16.2725 16.2725 16.2725s16.2734 -7.14355 16.2734 -16.2725v-194.877
c0 -9.12891 -7.14453 -16.2734 -16.2734 -16.2734zM309.979 43.5596c-8.73242 0 -16.2734 7.14453 -16.2734 16.2734v194.877c0 9.12891 7.14453 16.2725 16.2734 16.2725s16.2725 -7.14355 16.2725 -16.2725v-194.877c0 -9.12891 -7.14355 -16.2734 -16.2725 -16.2734z" />
    <glyph glyph-name="uniF132" unicode="&#xf132;" 
d="M357.209 463.876c9.12891 0 16.2734 -7.14453 16.2734 -16.2725v-22.624h64.2979c9.12793 0 16.2725 -7.14355 16.2725 -16.2725v-428.651c0 -9.12891 -7.14453 -16.2725 -16.2725 -16.2725h-363.561c-9.12793 0 -16.2725 7.14355 -16.2725 16.2725v428.651
c0 9.12891 7.14453 16.2725 16.2725 16.2725h71.8389v22.624c0 9.12793 7.14453 16.2725 16.2734 16.2725h194.877zM178.604 408.707v-28.5771h162.332v28.5771v22.623h-162.332v-22.623zM421.507 392.435h-48.0244v-28.5771
c0 -9.12891 -7.14453 -16.2725 -16.2734 -16.2725h-194.877c-9.12891 0 -16.2734 7.14355 -16.2734 16.2725v28.5771h-55.5654v-396.105h331.014v396.105zM377.055 182.077c9.12793 0 16.2725 -7.14355 16.2725 -16.2725s-7.14453 -16.2725 -16.2725 -16.2725h-234.567
c-9.12891 0 -16.2734 7.14355 -16.2734 16.2725s7.14453 16.2725 16.2734 16.2725h234.567zM259.969 103.491c8.73242 0 15.876 -7.14355 15.876 -16.2725s-7.14355 -16.2734 -16.2725 -16.2734h-117.085c-9.12891 0 -16.2734 7.14453 -16.2734 16.2734
s7.14453 16.2725 16.2734 16.2725h117.481zM126.214 244.787c0 8.73242 7.14453 16.2734 16.2734 16.2734h234.567c9.12793 0 16.2725 -7.14453 16.2725 -16.2734c0 -9.12793 -7.14453 -16.2725 -16.2725 -16.2725h-234.568c-9.12793 0 -16.2725 7.14453 -16.2725 16.2725z
" />
    <glyph glyph-name="uniF15B" unicode="&#xf15b;" 
d="M41.6748 -38.2012c-8.73242 0 -16.2734 7.14355 -16.2734 16.2725v428.254c0 9.12891 7.14453 16.2734 16.2734 16.2734h428.254c9.12891 0 16.2725 -7.14453 16.2725 -16.2734v-428.254c0 -9.12891 -7.14355 -16.2725 -16.2725 -16.2725h-86.5244h-255.206h-86.5234z
M399.678 390.053v-74.6172h53.9785v74.6172h-53.9785zM399.678 282.89h-0.397461v-74.6172h37.3086h17.0674v74.6172h-53.9785zM399.678 175.728h0.396484v-74.6172h53.9785v74.6172h-17.0664h-37.3086zM399.678 68.5645v-74.6172h53.9785v74.6172h-53.9785z
M144.472 390.053v-181.78h222.66v181.78h-222.66zM144.472 175.728v-181.78h222.66v181.78h-222.66zM57.9473 390.053v-74.6172h53.9785v74.6172h-53.9785zM57.9473 282.89v-74.6172h53.9785v74.6172h-53.9785zM57.9473 175.728v-74.6172h53.9785v74.6172h-53.9785z
M57.9473 68.5645v-74.6172h53.9785v74.6172h-53.9785z" />
    <glyph glyph-name="uniF121" unicode="&#xf121;" 
d="M482.63 288.844c19.0508 -98.0342 -41.6748 -229.011 -220.279 -302.041c-1.98438 -0.792969 -3.96875 -1.19043 -5.9541 -1.19043c-1.98438 0 -3.96875 0.397461 -5.95312 1.19043c-179.002 71.4424 -240.124 202.815 -221.073 301.644
c12.7012 66.6797 59.9326 109.544 120.261 109.544c34.1338 0 70.6484 -13.8906 106.766 -40.8799c35.7217 26.1953 72.2363 40.0869 105.973 40.0869c60.3281 0 107.163 -42.4688 120.261 -108.354zM256.396 19.3486c156.775 66.2822 210.754 179.398 194.481 263.145
c-9.92285 50.0088 -44.4531 82.1582 -88.5088 82.1582c-29.7676 0 -62.71 -13.8916 -96.0498 -40.4844c-5.95312 -4.7627 -14.2881 -4.7627 -20.2422 0c-33.3389 27.3867 -66.6787 41.6748 -96.4463 41.6748c-44.0557 0 -78.9824 -32.9424 -88.5088 -83.3486
c-16.2725 -84.54 38.1025 -198.053 195.274 -263.145z" />
    <glyph glyph-name="uniF126" unicode="&#xf126;" 
d="M471.119 -5.65625c9.12891 0 16.2734 -7.14355 16.2734 -16.2725s-7.14453 -16.2725 -16.2734 -16.2725h-430.238c-9.12891 0 -16.2734 7.14355 -16.2734 16.2725v428.254c0 9.12891 7.14453 16.2734 16.2734 16.2734s16.2725 -7.14453 16.2725 -16.2734v-411.981
h413.966zM471.119 422.599c9.12891 0 16.2734 -7.54102 16.2734 -16.2734v-353.24c0 -9.12793 -7.14453 -16.2725 -16.2734 -16.2725h-355.225c-9.12891 0 -16.2725 7.14453 -16.2725 16.2725v353.24c0 9.12891 7.14355 16.2734 16.2725 16.2734h355.225zM454.847 68.9609
v321.092h-322.68v-321.092h322.68z" />
    <glyph glyph-name="uniF10A" unicode="&#xf10a;" 
d="M239.728 217.005l-86.5244 -86.127c-8.33496 -8.33496 -13.0977 -19.4482 -13.0977 -31.3555s4.7627 -23.0205 13.0977 -31.3545c17.4639 -17.0674 45.6436 -17.0674 62.71 0l194.48 194.48c13.8916 13.8916 21.8301 32.9424 21.8301 52.7871
s-7.54102 38.499 -21.8301 52.7881c-13.8916 13.8916 -32.9424 21.8291 -52.7871 21.8291s-38.499 -7.54102 -52.7881 -21.8291l-194.083 -194.084c-19.8457 -19.8447 -30.959 -46.4375 -30.959 -74.6172s11.1133 -54.7725 30.959 -74.6172
c19.8447 -19.8447 46.4365 -30.958 74.6162 -30.958c28.1807 0 54.7725 11.1133 74.6172 30.958l86.127 86.127c6.35059 6.35059 16.6699 6.35059 23.0205 0c6.35059 -6.34961 6.35059 -16.6689 0 -23.0195l-86.127 -86.127
c-25.7988 -26.1963 -60.7256 -40.4844 -97.6377 -40.4844c-36.9111 0 -71.4414 14.2881 -97.6367 40.4844c-26.1953 25.7979 -40.4834 60.7256 -40.4834 97.6367c0 36.9121 14.2881 71.4424 40.4834 97.6377l194.084 194.083c42.0713 42.0713 109.94 42.0713 152.012 0
c20.2422 -20.2412 31.3555 -47.2305 31.3555 -75.8076c0 -28.5762 -11.1133 -55.5654 -31.3555 -75.8076l-194.48 -194.48c-29.7676 -30.1641 -78.5859 -30.1641 -108.75 0c-14.6855 14.6855 -22.623 33.7363 -22.623 54.375s7.9375 39.6904 22.623 54.375l86.127 86.127
c6.35059 6.35059 16.6699 6.35059 23.0205 0c6.34961 -6.34961 6.34961 -16.6689 0 -23.0195z" />
    <glyph glyph-name="uniF14A" unicode="&#xf14a;" 
d="M171.461 130.48c-33.7373 0 -61.5195 27.7832 -61.5195 61.5195s27.3857 61.5195 61.5195 61.5195c11.1123 0 21.8291 -2.77832 30.5605 -7.93848l84.9365 84.1426c-5.15918 9.12891 -8.33496 19.4482 -8.33496 30.5615c0 33.7363 27.7832 61.5195 61.5195 61.5195
s61.5195 -27.7832 61.5195 -61.5195s-27.3857 -61.5195 -61.5195 -61.5195c-11.1133 0 -21.4326 3.17578 -30.5615 8.33496l-84.5391 -84.5391c5.15918 -9.12891 8.33496 -19.4482 8.33496 -30.5615s-3.17578 -21.4326 -8.33496 -30.5615l84.5391 -84.9365
c9.12891 5.16016 19.4482 8.33496 30.5615 8.33496c33.7363 0 61.5195 -27.3857 61.5195 -61.5195c0 -33.7363 -27.7832 -61.5186 -61.5195 -61.5186s-61.5195 27.3857 -61.5195 61.5186c0 11.1133 3.17578 21.4326 8.33496 30.5615l-84.9365 84.9365
c-9.12891 -5.15918 -19.4482 -8.33496 -30.5605 -8.33496zM340.539 52.291c-16.2725 0 -29.3701 -13.0977 -29.3701 -29.3701s13.0977 -29.3701 29.3701 -29.3701c16.2734 0 29.3711 13.0977 29.3711 29.3701s-13.0977 29.3701 -29.3711 29.3701zM340.539 390.053
c-16.2725 0 -29.3701 -13.0977 -29.3701 -29.3701c0 -16.2734 13.0977 -29.3711 29.3701 -29.3711c16.2734 0 29.3711 13.0977 29.3711 29.3711c0 16.2725 -13.0977 29.3701 -29.3711 29.3701zM171.461 221.37c-15.876 0 -29.3711 -13.0977 -29.3711 -29.3701
s13.0977 -29.3701 29.3711 -29.3701c16.2725 0 29.3701 13.0977 29.3701 29.3701s-13.0977 29.3701 -29.3701 29.3701z" />
    <glyph glyph-name="uniF114" unicode="&#xf114;" 
d="M481.438 310.673c6.35059 -6.35059 6.35059 -16.6699 -0.396484 -23.0205l-213.929 -213.929c-3.17578 -3.1748 -7.54102 -4.7627 -11.5098 -4.7627c-4.36621 0 -8.33496 1.58789 -11.5107 4.7627l-213.929 213.929c-6.35059 6.35059 -6.35059 16.6699 0 23.0205
s16.6699 6.35059 23.0205 0l202.815 -202.815l202.419 202.815c6.34961 6.35059 16.6689 6.35059 23.0195 0z" />
    </font>
</defs>
</svg>
